<?xml version="1.0" standalone="no"?>
<!DOCTYPE svg PUBLIC "-//W3C//DTD SVG 1.1//EN" "http://www.w3.org/Graphics/SVG/1.1/DTD/svg11.dtd" >
<svg xmlns="http://www.w3.org/2000/svg">
<metadata></metadata>
<defs>
<font id="schindler_small_capsregular" horiz-adv-x="1024" >
<font-face units-per-em="2048" ascent="1525" descent="-523" />
<missing-glyph horiz-adv-x="631" />
<glyph horiz-adv-x="0" />
<glyph unicode="&#xd;" horiz-adv-x="631" />
<glyph unicode=" "  horiz-adv-x="631" />
<glyph unicode="&#x09;" horiz-adv-x="631" />
<glyph unicode="&#xa0;" horiz-adv-x="631" />
<glyph unicode="!" horiz-adv-x="536" d="M169 85q0 41 29 69.5t71 29.5q40 0 69 -29.5t29 -70.5q0 -40 -29 -69t-69 -29q-42 0 -71 28.5t-29 70.5zM188 828q0 107 78 107q79 0 79 -122q0 -37 -14 -166l-35 -323l-59 -32l-35 387q-2 27 -9 88q-5 41 -5 61z" />
<glyph unicode="&#x22;" horiz-adv-x="582" d="M106 1330q0 54 60 54q52 0 52 -47q0 -12 -2 -34l-31 -338h-38l-39 334q-2 17 -2 31zM363 1330q0 54 60 54q52 0 52 -47q0 -12 -2 -34l-31 -338h-38l-39 334q-2 17 -2 31z" />
<glyph unicode="#" horiz-adv-x="1194" d="M60 430l12 73h282l90 359h-298l12 73h304l108 430h76l-107 -430h243l108 430h76l-108 -430h277l-13 -73h-282l-90 -359h299l-13 -73h-304l-107 -430h-77l108 430h-243l-108 -430h-76l107 430h-276zM431 503h243l90 359h-243z" />
<glyph unicode="$" horiz-adv-x="1019" d="M95 263q0 49 36 49q27 0 37 -39q30 -113 79 -152q61 -49 142 -54v613q-56 32 -112 65q-63 41 -94 86q-55 79 -55 185q0 118 66 211q54 76 195 128v129h50v-120q59 8 118 7v113h51v-113q130 0 222 -23q-1 -21 -1 -37q0 -69 6 -143q2 -25 2 -33q0 -43 -41 -43q-23 0 -35 33 l-12 54q-23 89 -141 113v-573q128 -64 189 -133q77 -88 77 -212q0 -125 -73 -224t-193 -135v-198h-51v184q-61 -8 -118 -10v-174h-50v174q-26 1 -149 16q-115 14 -131 18l-13 211q-1 16 -1 27zM246 1046q0 -139 143 -220v451q-143 -69 -143 -231zM439 65q59 3 118 14v520 q-57 27 -118 59v-593zM439 799q60 -28 118 -57v556q-65 0 -118 -8v-491zM608 99q149 80 149 242q0 142 -149 233v-475z" />
<glyph unicode="%" horiz-adv-x="1706" d="M89 1023q0 144 89.5 237t233.5 94q137 1 221.5 -84.5t84.5 -221.5q0 -122 -71 -211q-94 -118 -250 -118q-132 0 -222 87q-86 83 -86 217zM215 1022q0 -94 41 -166q52 -92 149 -92q95 0 146 94q42 76 42 179q0 106 -38 179q-48 92 -145 93t-151 -100q-44 -81 -44 -187z M421 -60l745 1457h79l-743 -1457h-81zM980 286q0 141 90.5 234t231.5 94q137 1 226.5 -84t89.5 -221q0 -118 -82 -216q-94 -112 -247 -112q-124 0 -209 77q-100 90 -100 228zM1107 295q0 -101 43 -176q53 -90 146 -90t148 97q47 81 47 181q0 101 -43 173q-51 87 -146 88 q-102 1 -156 -106q-39 -77 -39 -167z" />
<glyph unicode="&#x26;" horiz-adv-x="1118" d="M85 202q0 134 229 251q-74 60 -100 91q-47 57 -47 122q0 92 72 145q65 47 160 47q89 0 146 -46q63 -50 63 -137q0 -76 -59 -134q-30 -30 -124 -88l294 -194q36 49 79 144q49 107 49 153q0 27 -27 37q-25 6 -51 11t-29 8q-9 6 -9 26q0 32 16 32q18 0 92 -14q37 -7 61 -7 q26 0 107 18q23 5 39 5t16 -32q0 -27 -41 -36q-61 -14 -92 -68q-24 -57 -48 -115q-55 -124 -108 -196l274 -179l-59 -75l-263 190q-140 -177 -359 -177q-111 0 -190 52q-91 60 -91 166zM194 230q0 -76 70 -127q59 -43 132 -43q172 0 275 138l-310 223q-89 -58 -109 -77 q-58 -53 -58 -114zM259 660q0 -59 52.5 -117.5t62.5 -53.5q70 45 97 73q46 48 46 107q0 52 -35.5 82.5t-88.5 30.5q-54 0 -94 -34.5t-40 -87.5z" />
<glyph unicode="'" horiz-adv-x="325" d="M106 1330q0 54 60 54q52 0 52 -47q0 -12 -2 -34l-31 -338h-38l-39 334q-2 17 -2 31z" />
<glyph unicode="(" horiz-adv-x="647" d="M104 683q0 200 84 406q82 200 220 352l72 -63q-273 -302 -273 -695t273 -695l-72 -64q-84 93 -148 206q-156 275 -156 553z" />
<glyph unicode=")" horiz-adv-x="647" d="M167 -12q273 301 273 695q0 393 -273 695l72 63q84 -93 148 -206q156 -275 156 -552q0 -200 -84 -406q-82 -201 -220 -353z" />
<glyph unicode="*" horiz-adv-x="750" d="M105 1273q0 45 41 45q29 0 66 -29l146 -115l-29 193q-3 20 -3 33q0 48 50 48q46 0 46 -55q0 -10 -1 -17l-29 -202l148 122q32 26 57 26q45 0 45 -45q0 -37 -63 -62l-179 -71l190 -73q54 -21 54 -57q0 -44 -47 -44q-24 0 -47 19l-158 129l25 -198q2 -16 2 -27 q0 -53 -48 -53q-46 0 -46 53q0 15 1 21l32 204l-152 -125q-29 -24 -60 -24q-40 0 -40 43q0 39 57 61l185 71l-186 69q-57 21 -57 60z" />
<glyph unicode="+" horiz-adv-x="1158" d="M91 548v74h448v454h77v-454h451v-74h-451v-450h-77v450h-448z" />
<glyph unicode="," horiz-adv-x="503" d="M63 -382q0 48 57 107q72 76 85 101q40 83 40 125q0 53 -49 53q-27 0 -59 -10q25 63 32 177q55 -5 90 -5q18 0 97 5q-31 -298 -178 -514q-22 -33 -26 -36q-11 -10 -39 -10q-6 0 -31 -1h-5q-14 0 -14 8z" />
<glyph unicode="-" horiz-adv-x="428" d="M0 395v97h428v-97h-428z" />
<glyph unicode="." horiz-adv-x="502" d="M152 85q0 41 29 69.5t71 29.5q40 0 69 -29.5t29 -70.5q0 -40 -29 -69t-69 -29q-42 0 -71 28.5t-29 70.5z" />
<glyph unicode="/" horiz-adv-x="893" d="M97 -62q0 10 7 27l582 1439q15 37 34 37q35 -1 39 0q20 1 20 -10q0 -5 -9 -27l-582 -1447q-10 -26 -23 -31q-7 -2 -42 -2q-26 0 -26 14z" />
<glyph unicode="0" horiz-adv-x="997" d="M68 452q0 208 109 341q117 142 322 144q202 1 320 -140q109 -133 109 -338q0 -191 -101 -327q-113 -152 -337 -152q-201 0 -315 138q-107 129 -107 334zM187 458q0 -158 75 -264q84 -120 236 -120q157 0 241 128q68 103 68 247q0 160 -72 267q-82 124 -235 125 q-148 1 -239 -126q-74 -103 -74 -257z" />
<glyph unicode="1" horiz-adv-x="1058" d="M245 883q0 47 27 47q19 0 118 -22q76 -17 127 -17q44 0 149 22q82 17 120 17q25 0 25 -33q0 -31 -25 -39l-54 -6q-86 -10 -111.5 -41t-26.5 -120l-3 -239q0 -257 15 -314q11 -42 80 -63q15 -4 107 -20q19 -3 19 -24q0 -42 -24 -42q-57 0 -188 28q-47 10 -78 10 q-22 0 -147 -23q-81 -15 -102 -15q-25 0 -25 25q0 33 14 41q7 5 46 10q128 15 151 78q11 30 11 238v151q0 170 -8 219q-13 82 -139 99q-78 11 -78 33z" />
<glyph unicode="2" horiz-adv-x="990" d="M73 -7v61l32 21l286 190q70 50 129 111q128 132 128 245q0 88 -62 139q-58 48 -148 48q-119 0 -190 -80q-34 -38 -67 -136q-11 -33 -28 -33q-30 0 -30 37q0 93 50 177q96 162 303 162q129 0 217 -76q92 -79 92 -206q0 -205 -251 -379q-91 -63 -274 -162q159 7 308 7 q139 0 178 26q46 31 93 122q27 51 56 51q31 0 31 -33q0 -14 -15 -39q-67 -114 -111 -263q-66 22 -207 22q-437 0 -520 -12z" />
<glyph unicode="3" horiz-adv-x="984" d="M51 -168q0 94 77 94q67 0 71 -86q3 -65 5 -78q6 -41 25 -73q55 -92 194 -92q166 0 259 116q74 92 74 211q0 143 -107 220q-95 69 -243 69q-112 0 -235 -37l46 158q102 -26 202 -26q174 0 254 103q59 76 59 160q0 121 -103 191q-71 48 -180 48q-116 0 -191 -55 q-80 -60 -92 -172q-6 -57 -23 -57q-35 0 -35 88q0 204 186 288q75 33 162 33q150 0 252 -87q107 -91 107 -239q0 -226 -202 -316q101 -23 163 -86q97 -98 97 -243q0 -133 -81 -246q-131 -184 -378 -184q-193 0 -294 116q-69 80 -69 182z" />
<glyph unicode="4" horiz-adv-x="997" d="M42 51q0 16 83 124l37 48l497 676q46 62 54 62q6 0 16 -4l24 -10q6 -11 6 -23q-1 -57 -2 -133l-1 -80v-609q49 1 99 1q13 0 19 -1t15 -1l27 2q6 0 6 -10v-82q0 -12 -13 -12h-29l-43 1q-14 0 -81 -1v-191q0 -171 -46 -246h-136q42 60 52 143q3 28 3 155v139h-474 q-27 0 -85 -4h-5q-10 0 -14 19q-9 41 -9 37zM170 99l55 1l144 2h260l12 633z" />
<glyph unicode="5" horiz-adv-x="1012" d="M41 -195q0 104 83 104q71 0 69 -103q-4 -203 193 -203q143 0 245 111q117 127 117 320q0 150 -78.5 233t-225.5 83q-142 0 -291 -79q-6 -3 -9 -3q-8 0 -8 9q0 5 6 27q10 38 21 96l64 355q15 84 17 143h529q46 0 106 19q6 2 12 2q8 0 8 -6q-1 -4 -6 -15l-53 -116 q-11 -23 -18 -23q-1 0 -20.5 8t-26.5 10q-35 5 -79 5h-390l-62 -351q100 49 229 49q181 0 283 -91q106 -95 106 -273q0 -245 -163 -430q-135 -153 -331 -153q-131 0 -224 69q-103 77 -103 203z" />
<glyph unicode="6" horiz-adv-x="994" d="M82 512q0 416 338 680q141 110 312 166q128 42 228 42q46 0 46 -25v-7q1 -16 -36 -24q-281 -63 -519 -280q-180 -164 -230 -354q123 206 331 206q167 0 265 -126q89 -115 89 -287q0 -177 -86 -319q-123 -204 -340 -204q-220 0 -333 225q-65 129 -65 307zM207 464 q0 -156 66 -273q79 -142 224 -142q180 0 253 195q31 83 31 181q0 121 -42 217q-74 168 -245 170q-141 1 -226 -124q-61 -90 -61 -224z" />
<glyph unicode="7" horiz-adv-x="990" d="M84 754q0 4 2 10l36 123q7 24 21 24q9 0 14 -1q60 -11 189 -11h304q174 0 287 13q4 1 11 1q13 0 13 -14q0 -7 -6 -18l-741 -1345h-110l689 1242l-489 -3q-31 -1 -97 -6q-14 -2 -60 -13q-41 -11 -53 -11q-9 0 -10 9z" />
<glyph unicode="8" horiz-adv-x="992" d="M101 361q0 284 272 353q-170 37 -224 181q-25 64 -25 135q0 172 124 271q102 81 251 81q186 0 287 -119q82 -96 82 -230q0 -255 -247 -319q83 -17 139 -60q130 -100 130 -288q0 -158 -100 -262q-115 -119 -301 -119q-118 0 -217 58q-171 100 -171 318zM205 379 q0 -126 83 -200q80 -72 208 -72q147 0 230 96q65 75 65 179q0 128 -87 216q-74 75 -207 76q-134 1 -213 -79.5t-79 -215.5zM218 1015q0 -115 81 -189q78 -73 194 -73q133 0 215 90q65 72 65 173q0 121 -73 187q-70 62 -193 63t-203 -62q-86 -69 -86 -189z" />
<glyph unicode="9" horiz-adv-x="999" d="M85 449q0 123 52 236q56 121 153.5 186.5t221.5 65.5q195 0 300 -150q90 -131 90 -335q0 -309 -210 -600q-228 -318 -526 -318q-41 0 -41 17q0 8 80 48q238 118 398 337q129 176 170 342q-140 -216 -349 -216q-100 0 -181 55q-158 107 -158 332zM183 494q0 -132 78 -218 q80 -89 211 -89q212 0 295 195q29 69 29 145q0 196 -142 279q-69 39 -151 40q-141 1 -233 -106q-87 -102 -87 -246z" />
<glyph unicode=":" horiz-adv-x="502" d="M152 85q0 41 29 69.5t71 29.5q40 0 69 -29.5t29 -70.5q0 -40 -29 -69t-69 -29q-42 0 -71 28.5t-29 70.5zM152 686q0 41 29 69.5t71 29.5q40 0 69 -29.5t29 -70.5q0 -40 -29 -69t-69 -29q-42 0 -71 28.5t-29 70.5z" />
<glyph unicode=";" horiz-adv-x="503" d="M63 -382q0 48 57 107q72 76 85 101q40 83 40 125q0 53 -49 53q-27 0 -59 -10q25 63 32 177q55 -5 90 -5q18 0 97 5q-31 -298 -178 -514q-22 -33 -26 -36q-11 -10 -39 -10q-6 0 -31 -1h-5q-14 0 -14 8zM162 686q0 42 29 71.5t70 29.5q42 0 69.5 -28.5t27.5 -70.5 q0 -41 -28.5 -69t-69.5 -28q-39 0 -68.5 28t-29.5 67z" />
<glyph unicode="&#x3c;" d="M90 685v12l843 546v-62l-673 -441l673 -449v-166z" />
<glyph unicode="=" horiz-adv-x="1158" d="M94 415v73h975v-73h-975zM94 687v73h975v-73h-975z" />
<glyph unicode="&#x3e;" d="M90 125v63l673 441l-673 448v166l844 -560v-12z" />
<glyph unicode="?" horiz-adv-x="634" d="M102 470q0 103 108 171q44 25 89 49q55 35 55 72q0 28 -31 44q-26 13 -56 11l-37 -2q-22 -1 -22 17q0 7 11 16l105 85q6 6 8 6q5 0 39 -21q104 -65 104 -126q0 -68 -74 -118q-16 -11 -116 -58q-115 -54 -115 -147q0 -65 52 -103q47 -35 114 -35q60 0 105 26q29 18 84 71 l44 -94q-82 -68 -216 -68q-159 0 -223 107q-28 46 -28 97zM236 85q0 41 29 69.5t71 29.5q41 0 69.5 -29.5t28.5 -70.5q0 -40 -29 -69t-69 -29q-42 0 -71 28.5t-29 70.5z" />
<glyph unicode="@" horiz-adv-x="1640" d="M137 586q0 253 123 451q128 208 357 298q163 64 359 64q247 0 398 -125q171 -142 171 -359q0 -198 -160 -351q-119 -114 -281 -196q-112 -57 -126 -62q-6 -3 -14 -6q-4 0 -10.5 10t-6.5 14q1 3 4 7q5 11 8 26l3 18l14 69q-131 -133 -274 -133q-86 0 -149 53 q-75 64 -75 176q0 174 126 325q139 166 312 166q45 0 89 -17q56 -22 61 -60l2 19q5 47 59 68l48 19q12 5 16 5q13 0 13 -28q0 -5 -13 -14q-18 -12 -30 -78l-90 -508q-1 -4 -1 -9q-1 -13 13 -13q25 0 100 49q245 160 245 426q0 211 -129 322q-122 104 -336 104 q-212 0 -385 -101q-183 -107 -265 -294q-64 -147 -64 -325q0 -380 241 -502q103 -52 218 -52q207 0 455 99l13 -58q-278 -118 -509 -118q-262 0 -403 184q-127 166 -127 437zM579 563q0 -90 57 -132q42 -31 97 -31q109 0 231 92q23 17 32 69l47 263q6 34 6 41q0 39 -52 65 q-44 22 -87 22q-160 0 -264 -168q-67 -109 -67 -221z" />
<glyph unicode="A" horiz-adv-x="1320" d="M-27 14q0 37 18 45q4 2 55 8q60 7 115 105q19 33 68 151l328 787q63 150 87 220q19 53 35 53q18 0 26 -24q41 -119 65 -181l360 -917q45 -114 62 -137q35 -44 127 -65q28 -6 28 -34q0 -36 -40 -36q-26 0 -86.5 16t-95.5 16q-29 0 -84.5 -15t-80.5 -15q-32 0 -32 37 q0 27 32 33q74 13 74 54q0 30 -26 96l-135 343h-439l-131 -321q-32 -78 -32 -109q0 -50 79 -61q39 -6 39 -29q0 -43 -23 -43q-30 0 -89 14.5t-87 14.5q-42 0 -111 -19q-43 -12 -64 -12q-42 0 -42 25zM469 640h370l-177 481z" />
<glyph unicode="B" horiz-adv-x="1130" d="M32 28q0 28 48 34l70 2q81 3 97 42q8 19 8 151v911q0 86 -9 104q-14 19 -99 29q-47 6 -52 8q-23 8 -23 39q0 30 32 30q17 0 56 -7q84 -15 166 -15q41 0 122.5 6t122.5 6q224 0 314 -162q39 -70 39 -152q0 -93 -51 -175q-68 -109 -214 -152q168 -21 267 -99 q118 -93 118 -252q0 -237 -199 -332q-115 -55 -251 -55q-75 0 -206 19q-27 4 -73 4q-51 0 -150 -15q-46 -7 -92 -7q-41 0 -41 38zM381 383q0 -188 15 -233q29 -86 175 -86q150 0 236 69q96 75 96 221q0 209 -201 285q-98 37 -264 37q-13 0 -57 -1v-292zM381 751q36 -1 47 -1 q247 0 321 127q37 64 37 150q0 109 -59.5 178t-167.5 83q-32 4 -129 4q-37 0 -43 -5t-6 -42v-494z" />
<glyph unicode="C" horiz-adv-x="1371" d="M98 720q0 166 69 300q110 213 296 293q148 64 371 64q93 0 322 -36q3 -1 99 -13l11 -201v-6q0 -41 -35 -41q-28 0 -38 21q-2 4 -12 48q-15 64 -38 85q-36 32 -162 53q-100 16 -176 16q-228 0 -384 -138q-99 -87 -143 -238q-33 -113 -33 -241q0 -195 82 -339 q89 -157 260 -227q127 -52 270 -52q89 0 174 19q115 27 148 78q16 26 43 110q11 36 45 36q40 0 40 -29q0 -7 -10 -52l-42 -191q-287 -52 -413 -52q-216 0 -383 78q-361 169 -361 655z" />
<glyph unicode="D" horiz-adv-x="1512" d="M16 11v36q0 21 35 24l122 11q53 5 73 46q13 26 13 76v14q-3 135 -4 135v-38v839q0 98 0 96q-8 36 -66 45l-70 11q-29 5 -35 8q-11 7 -11 31q0 34 25 34q10 0 26 -3q121 -23 222 -23q63 0 304 15q16 1 52 1q440 0 627 -335q82 -147 82 -340q0 -250 -136 -436 q-196 -268 -562 -268q-95 0 -272 30q-35 6 -87 6q-82 0 -202 -20q-96 -16 -118 -16q-18 0 -18 21zM384 279q4 -80 26 -119q55 -96 286 -96q244 0 385 134q183 175 183 488q0 359 -264 518q-151 91 -345 91q-16 0 -81 -3l-151 -7q-39 -2 -39 -26l1 -94v-763q0 -125 -1 -125v2 z" />
<glyph unicode="E" horiz-adv-x="1065" d="M61 23q0 33 39 34q92 2 119 21q35 25 35 110v1017q0 66 -34 81q-7 3 -103 12q-27 3 -33 10t-6 35t22 28q26 0 61 -3q103 -9 241 -9q13 0 98 2q105 3 197 4l130 2q7 -2 13 -11l-1 -22q-1 -21 4 -57q12 -88 12 -112q0 -36 -38 -36q-35 0 -42 62t-46 78q-22 10 -99 10h-248 v-553h307q67 0 85 15.5t27 83.5q5 43 38 43q37 0 37 -35q0 -23 -5 -70t-5 -71q0 -25 8 -80q6 -42 6 -59q0 -41 -37 -41q-33 0 -39 45q-8 57 -34 70q-16 7 -85 7h-303v-297q0 -144 16 -185q22 -56 129 -70q28 -3 158 -3q146 0 190 45q22 22 47 106q11 36 45 36q37 0 37 -32 q0 -10 -5 -26q-22 -68 -53 -220h-19q-21 0 -149 8q-161 10 -373 10q-138 0 -269 -18q-22 -3 -37 -3q-38 0 -38 38z" />
<glyph unicode="F" horiz-adv-x="960" d="M58 32q0 22 44 29q125 19 139 48q14 18 14 186v860q0 115 -18 126.5t-120 23.5q-27 3 -33 15q-5 8 -5 39q0 18 29 18q16 0 58 -5q102 -12 267 -12q75 0 159 4q88 4 132 4h15q40 -1 79 -1q4 0 19 1q4 -29 18 -126q17 -108 17 -106q0 -32 -36 -32t-48 55q-17 79 -34 97 q-23 24 -161 24h-209v-554h249q75 0 93 7q36 14 43 72q8 62 42 62q36 0 36 -37q0 -15 -3 -36q-8 -56 -8 -100q0 -52 11 -117q3 -18 3 -26q0 -37 -37 -37q-32 0 -40 48q-9 58 -49 70q-15 5 -98 5h-242v-339q0 -168 30 -197q23 -22 148 -43q28 -5 28 -39q0 -31 -40 -31 q-26 0 -122 25q-54 14 -100 14q-51 0 -160 -28q-47 -12 -83 -12q-27 0 -27 45z" />
<glyph unicode="G" horiz-adv-x="1441" d="M102 681q0 195 79 361q159 333 632 333q121 0 339 -26q30 -4 80 -8q11 -133 21 -183q4 -19 4 -34q0 -32 -32 -32h-4q-33 0 -47 60q-18 78 -58 101q-84 49 -308 49q-561 0 -561 -600q0 -635 592 -635q209 0 273 67q27 28 27 147q0 128 -33 144q-13 6 -89 13q-27 2 -27 23 v29q0 20 26 20q14 0 91 -12q57 -9 102 -9q32 0 84 12q44 10 62 10q17 0 17 -19v-27q0 -22 -33 -27q-49 -8 -62.5 -22t-11.5 -61q1 -19 1 -44.5t-1 -56.5q-2 -82 -2 -101q0 -84 5 -154q-54 7 -92 7q-59 0 -222 -16q-20 -2 -85 -2q-229 0 -379 56q-217 81 -313 279 q-75 155 -75 358z" />
<glyph unicode="H" horiz-adv-x="1551" d="M80 9v23q0 23 35 28q51 8 74 17q41 16 53.5 50.5t12.5 114.5v825q0 130 -12 170q-22 51 -121 66q-42 7 -42 25v30q0 20 28 20q31 0 166 -32q34 -8 53 -8q23 0 110 22q72 18 103 18q23 0 23 -19v-27q0 -22 -84 -39q-78 -16 -93 -89q-3 -15 -3 -146v-323h787v331 q0 159 -21 186q-28 36 -131 56q-24 5 -29 26v27q0 16 31 16q28 0 115 -24q47 -13 89 -13q45 0 107 16q77 20 115 20q26 0 26 -20v-26q-2 -20 -28 -25q-96 -18 -116 -38q-31 -32 -31 -181v-778q0 -107 1 -119q8 -79 48 -102q29 -18 87 -25q39 -5 39 -27v-30q0 -19 -25 -19 q-39 0 -153 30q-31 8 -72 8q-37 0 -91 -15q-87 -24 -114 -24q-26 0 -26 20v28q0 21 50 29q87 13 111 61q16 32 16 135v386h-785v-297q0 -173 10 -206q19 -63 118 -77q53 -8 53 -27v-29q0 -21 -25 -21q-29 0 -110 21q-69 18 -103 18q-38 0 -99 -16q-87 -23 -120 -23 q-27 0 -27 22z" />
<glyph unicode="I" horiz-adv-x="637" d="M74 32q0 19 34 25q108 19 131 67q16 33 16 187v739q0 163 -16 197q-20 41 -134 61q-30 5 -30 41q0 29 31 29t83 -14q89 -24 124 -24t137 23q57 13 92 13q21 0 21 -36q0 -30 -52 -38q-101 -16 -121 -82q-7 -22 -7 -166v-750q0 -132 12 -173q15 -52 124 -69q32 -5 37.5 -12 t5.5 -40q0 -22 -26 -22q-29 0 -95 18q-73 20 -121 20q-45 0 -163 -31q-30 -8 -53 -8q-30 0 -30 45z" />
<glyph unicode="J" horiz-adv-x="621" d="M0 -197q33 -4 56 -4q110 0 155 58q31 40 37 125v134v991q0 114 -14 146q-12 25 -71 39l-64 14q-34 12 -34 45q0 28 28 28q34 0 102.5 -19t103.5 -19q48 0 116 17q80 20 110 20q26 0 26 -43q0 -22 -38 -34q-28 -5 -56 -11q-61 -14 -74 -66q-3 -13 -4 -110l-7 -749 q-2 -217 -7 -269q-14 -161 -71 -257q-44 -74 -112 -122q-77 -54 -155 -54q-9 0 -27 1v139z" />
<glyph unicode="K" horiz-adv-x="1259" d="M80 23q0 31 36 38q57 12 68 15q40 13 54 39q17 30 17 183v793q0 111 -9 137q-20 56 -102 71q-40 7 -46 10q-17 9 -17 39q0 32 30 32q27 0 156 -33q24 -6 59 -6q20 0 122 23q65 14 88 14q25 0 25 -44q0 -21 -41 -29q-101 -20 -124 -62q-15 -27 -15 -145v-800 q0 -119 6 -142q17 -66 96 -84l15 -4q43 -10 44 -10q19 -9 19 -35q0 -35 -34 -35q-22 0 -82 18q-67 20 -119 20q-37 0 -109 -18q-76 -19 -109 -19q-28 0 -28 34zM414 686l420 485q61 70 61 93q0 21 -52 32q-48 10 -52 12q-24 10 -24 39q0 32 26 32q20 0 92 -20q51 -14 95 -14 q28 0 113 22q46 12 72 12q23 0 23 -25q0 -30 -5 -36t-61 -19t-84 -35q-16 -12 -65 -68l-418 -476l477 -512q177 -190 246 -204q43 -14 43 -27q0 -19 -75 -19q-98 0 -155 30q-79 42 -168 139z" />
<glyph unicode="L" horiz-adv-x="1010" d="M33 27q0 21 11 26q4 2 33 5l81 8q71 7 83 35q14 34 14 202v818q0 113 -18 139q-22 30 -128 47q-28 5 -28 38t32 33q44 0 144 -29q35 -10 62 -10q31 0 130 25q60 15 87 15t27 -38q0 -30 -61 -39q-82 -13 -104 -54q-15 -29 -15 -123v-805q0 -152 30 -190q38 -48 154 -48 h133q96 0 135 16q57 25 78 103q18 67 54 67t36 -34q0 -15 -33 -129q-15 -54 -25 -115q-54 0 -158 6q-226 13 -415 13q-53 0 -156.5 -10t-155.5 -10q-27 0 -27 38z" />
<glyph unicode="M" horiz-adv-x="1826" d="M29 25q0 30 39 39q87 21 107 110q7 88 13 176l84 942q1 27 3 54q5 36 28 36q13 0 46 -61l569 -1067l519 1072q27 56 45 56q21 0 28 -57l128 -980q14 -104 16 -117q14 -86 31 -112q22 -33 117 -54q27 -6 27 -39q0 -36 -29 -36q-32 0 -98 19t-95 19q-65 0 -170 -30 q-28 -8 -54 -8t-26 46q0 22 45 30q124 22 124 97q0 47 -14 162l-92 754l-460 -952q-41 -85 -58 -85q-15 0 -25 22q-17 37 -30 61l-505 954l-50 -710q-8 -114 -8 -132q0 -93 37 -128q30 -27 129 -47q22 -4 22 -38q0 -32 -40 -32q-29 0 -82 17q-56 18 -100 18q-51 0 -133 -23 q-39 -11 -58 -11q-30 0 -30 35z" />
<glyph unicode="N" horiz-adv-x="1570" d="M77 29q0 25 46 34.5t58 14.5q33 12 43 35q16 30 18 249l6 858q0 51 -4 109q-1 15 -1 28q0 27 21 27q12 0 42 -36l917 -1101v793q0 147 -15 189q-14 38 -55 55q-11 5 -79 21q-28 7 -32.5 14.5t-4.5 38.5q0 22 28 22t136 -29q30 -8 58 -8q14 0 140 28q34 7 61 7 q31 0 31 -31q0 -36 -41 -42q-93 -14 -107 -46q-9 -14 -11 -36q-7 -77 -7 -162v-1019q0 -11 1 -22v-12q0 -35 -19 -35q-15 0 -55 48l-907 1083v-742q0 -173 9 -203q26 -81 150 -100q31 -5 31 -35q0 -35 -24 -35t-106 21q-50 13 -98 13q-35 0 -117 -19q-64 -15 -86 -15 q-27 0 -27 40z" />
<glyph unicode="O" horiz-adv-x="1582" d="M102 681q0 309 207 511q193 189 492 190h6q302 0 498 -218q176 -195 176 -483q0 -255 -160 -452q-200 -247 -534 -247q-232 0 -407 128q-134 98 -207 252q-71 148 -71 319zM230 675q0 -231 130 -386q161 -192 427 -192q194 0 339.5 107t198.5 292q27 95 27 184 q0 285 -180 447q-153 138 -377 140h-8q-267 0 -428 -196q-129 -158 -129 -396z" />
<glyph unicode="P" horiz-adv-x="1014" d="M99 1345q0 32 28 32q8 0 55 -8q71 -12 130 -12q51 0 150 7q71 5 124 5q216 0 307 -124q60 -82 60 -195q0 -171 -113 -275q-110 -100 -283 -100q-34 0 -83 17q-61 21 -61 47q0 9 11 9h8q18 -2 38 -2q363 0 363 265q0 142 -114 220q-82 56 -181 56q-130 0 -147 -17 q-8 -8 -8 -85v-871q0 -137 20 -175q30 -57 148 -72q29 -3 57 -6q29 -8 29 -39q0 -36 -32 -36q-53 0 -185 27q-54 11 -88 11q-33 0 -95 -17q-70 -19 -107 -19q-30 0 -30 38q0 25 23 32l46 8q63 12 77 61q8 27 8 187v820q0 105 -18 132q-13 20 -101 39q-36 8 -36 40z" />
<glyph unicode="Q" horiz-adv-x="1582" d="M101 675q0 203 93 368q97 171 273 262q149 77 330 77q278 0 468 -176q214 -199 214 -515q0 -280 -173 -474l160 -157q57 -56 108 -86q5 -3 5 -6q0 -11 -31 -9q-9 0 -62 -2q-22 -1 -25 -1q-70 0 -128 58l-117 116q-182 -147 -432 -147q-321 0 -520 233q-163 191 -163 459z M229 683q0 -263 150 -417q167 -171 409 -171q260 0 425 189q138 158 138 401q0 266 -164 427q-156 153 -401 155h-6q-251 0 -410 -179q-79 -89 -115 -219q-26 -95 -26 -186z" />
<glyph unicode="R" horiz-adv-x="1273" d="M77 25q0 29 36 40q31 5 61 11q69 14 80 106q0 -4 0 150v750q0 121 -5 140q-16 60 -97 78q-48 10 -49 11q-22 9 -22 37q0 31 21 31q3 0 83 -10t144 -10q32 0 170 7q59 3 111 3q126 0 210 -49q139 -81 139 -266q0 -228 -221 -371l212 -285q261 -351 336 -388q48 -24 48 -35 q0 -13 -21 -13q-96 0 -166 33q-108 51 -261 258l-277 375q-84 -8 -187 -8q-10 0 -41 1v-282q0 -177 21.5 -221t121.5 -55q37 -4 37 -38q0 -36 -29 -36q-27 0 -100 20t-110 20q-33 0 -107.5 -19.5t-109.5 -19.5q-28 0 -28 35zM381 696q63 -4 105 -4q156 0 231 63 q101 85 101 249q0 129 -71 206.5t-199 77.5q-134 0 -157 -7q-10 -3 -10 -47v-538z" />
<glyph unicode="S" horiz-adv-x="994" d="M104 268q0 42 35 42t47 -60q35 -184 260 -184q106 0 183 43q123 68 123 226q0 137 -104 212q-47 34 -253 137q-122 61 -179 127q-70 83 -70 203q0 247 199 329q89 37 191 37q105 0 298 -24v-204q1 -8 1 -17q0 -35 -33 -35q-32 0 -40 35q-20 81 -44 115q-40 55 -174 55 q-274 0 -274 -248q0 -113 74 -181q41 -37 178 -105q200 -99 271 -173q87 -91 87 -229q0 -141 -97 -249q-118 -132 -335 -132q-93 0 -330 35l-12 207q-2 35 -2 38z" />
<glyph unicode="T" horiz-adv-x="1205" d="M-46 1218q0 8 1 11l34 144q7 28 18 28q4 -1 9 -4q47 -32 206 -32h782q153 0 205 39q10 8 15 8q12 0 12 -9q0 -8 -3 -20l-35 -138q-1 -25 -15 -25q-4 0 -19 12q-54 45 -211 45h-287v-992q0 -129 18.5 -165t117.5 -54q35 -6 38 -8q17 -7 16 -29v-12q0 -28 -27 -28 q-28 0 -95 16q-91 22 -132 22q-38 0 -131 -23q-64 -16 -93 -16q-30 0 -30 37q0 28 38 34q117 20 138 69q14 33 14 195v954h-302q-110 0 -160 -11q-39 -9 -79 -41q-27 -21 -34 -21q-9 0 -9 14z" />
<glyph unicode="U" horiz-adv-x="1435" d="M58 1343v11q0 27 25 27q15 0 82 -17q71 -18 108 -18t146 23q43 9 63 9q24 0 24 -39q0 -22 -32 -33q-25 -6 -51 -12q-79 -20 -92 -76q-2 -7 -2 -137q0 -510 46 -696q37 -151 123 -230q100 -92 245 -92q298 0 360 372q30 179 30 610q0 142 -11 196q-10 48 -82 62 q-34 6 -40 11q-10 7 -10 36t27 29q29 0 90 -17q54 -15 81 -15q29 0 109 21q31 8 71 8q18 0 18 -20q0 -29 -3 -34q-4 -10 -28 -14q-63 -12 -82 -37t-20 -91q-1 -44 -19 -448q-17 -372 -122 -542q-127 -206 -392 -206q-407 0 -484 428q-20 110 -32 349l-18 352q-1 39 -2 79 q-4 59 -17 78.5t-92 41.5q-18 5 -17 31z" />
<glyph unicode="V" horiz-adv-x="1279" d="M-38 1333q0 30 1 34q5 13 26 13t56 -9q71 -18 106 -18q23 0 86 16q47 12 74 12q28 0 28 -34q0 -30 -23 -36q-81 -22 -81 -40q0 -17 64 -171l369 -887l383 942q21 52 21 85q0 55 -93 63q-51 4 -51 47q0 30 33 30q25 0 73 -12q60 -15 97 -15q39 0 101 16q39 10 61 10 q24 0 24 -39q0 -29 -22 -30q-53 -3 -90 -63q-11 -17 -48 -106l-465 -1107q-28 -66 -40 -66t-46 80l-460 1069q-47 110 -49 113q-35 60 -90 74q-45 11 -45 29z" />
<glyph unicode="W" horiz-adv-x="1883" d="M-20 1348q0 33 27 33q22 0 63 -12q59 -17 94 -17q40 0 123 22q27 7 53 7q28 0 27 -26v-8q0 -32 -30 -38q-89 -17 -89 -44q0 -7 26 -85l314 -946l303 900l-26 75q-16 45 -32 60q-19 18 -63 26q-55 11 -60 13q-21 10 -21 48q0 25 26 25q32 0 163 -32q16 -4 45 -4 q45 0 131 20q69 16 94 16t24 -21v-15q1 -8 1 -13q0 -16 -46 -27q-37 -8 -75 -16q-53 -17 -53 -44q0 -17 14 -59l314 -952l314 936q27 80 27 95q0 21 -36 31q-27 6 -52 11t-25 39q0 33 23 33q26 0 76 -13t76 -13q25 0 65 9q67 15 87 15q22 0 22 -32q0 -27 -21 -34l-31 -11 q-58 -20 -78 -55q-2 -5 -35 -98l-393 -1122q-20 -57 -37 -57q-14 0 -35 62l-331 974l-336 -982q-11 -31 -21 -48q-5 -7 -15 -7q-17 0 -36 55l-399 1147q-27 77 -42 96q-24 29 -90 45q-24 6 -24 38z" />
<glyph unicode="X" horiz-adv-x="1310" d="M-3 25q0 23 19 30t39 12q57 15 79 34q28 25 106 128l348 459l-351 496q-54 76 -62 84q-25 21 -93 34q-34 6 -41 11q-13 10 -13 38t27 28q30 0 150 -26q19 -4 43 -4q21 0 122 19q63 12 78 12q25 0 25 -39q0 -29 -77 -46q-42 -9 -42 -31q0 -24 41 -83l273 -394l267 361 q70 95 70 113q0 31 -86 44q-30 5 -36 11.5t-6 36.5q0 24 34 24q22 0 118 -19q41 -8 63 -8q33 0 134 21q34 7 53 7q35 0 35 -28q0 -32 -11.5 -37.5t-75.5 -23.5q-46 -13 -75 -38q-33 -28 -106 -124l-318 -418l332 -473q75 -107 86 -117q35 -33 126 -56q27 -7 33 -13t6 -31 q0 -31 -42 -31q-26 0 -134 23q-28 6 -58 6q-29 0 -83 -12q-73 -16 -96 -16q-34 0 -34 36q0 26 41 37q76 20 76 44q0 22 -54 100l-279 403l-294 -392q-56 -75 -56 -95q0 -29 43 -44q33 -9 67 -17q31 -8 31 -27q0 -44 -43 -44q-19 0 -89 18q-43 11 -86 11q-36 0 -137 -23 q-35 -8 -58 -8q-29 0 -29 37z" />
<glyph unicode="Y" horiz-adv-x="1218" d="M-38 1350q0 28 31 28t115 -24q18 -5 47 -5q30 0 106 19q40 10 70 10t30 -33q0 -32 -37 -39q-80 -14 -80 -35q0 -18 33 -69l357 -553l305 499q62 101 62 115q0 22 -93 43q-26 6 -26 44q0 28 33 28q16 0 47 -8q77 -20 104 -20q31 0 107 20q30 8 46 8q39 0 39 -45 q0 -18 -37 -27q-69 -16 -95 -41q-10 -10 -60 -91l-388 -627v-288q0 -114 20 -143q23 -35 129 -57q22 -5 26 -10t4 -29q0 -32 -26 -32q-23 0 -73 12q-103 25 -145 25q-41 0 -150 -27q-36 -9 -68 -9q-23 0 -23 45q0 17 50 29q96 23 116 61q14 25 14 137v286l-414 636 q-46 70 -56 81q-27 26 -85 41q-35 9 -35 45z" />
<glyph unicode="Z" horiz-adv-x="1255" d="M42 8q0 4 11 19l910 1236h-623q-117 0 -143 -2q-72 -6 -99 -40q-12 -16 -18 -16q-9 0 -9 11q0 7 2 18l22 137q5 30 16 30q8 -2 24 -11q44 -25 226 -25h772q28 0 28 -7q-1 -5 -9 -16l-909 -1234h790q121 0 164 29l18 10q10 8 13 8q6 0 6 -6q0 -3 -2 -12l-21 -136 q-4 -24 -13 -24q-1 0 -25 9.5t-34 10.5q-26 3 -100 3h-978q-19 0 -19 8z" />
<glyph unicode="[" horiz-adv-x="582" d="M205 -76v1517h345v-85h-248v-1350h248v-82h-345z" />
<glyph unicode="\" horiz-adv-x="893" d="M95 1432q0 9 34 9q36 0 42 -3.5t18 -33.5l581 -1439q8 -20 8 -27q0 -15 -25 -14h-12q-32 1 -36 3q-8 4 -18 30l-583 1447q-9 22 -9 28z" />
<glyph unicode="]" horiz-adv-x="583" d="M34 9h248v1350h-248v82h345v-1517h-345v85z" />
<glyph unicode="^" d="M-47 590l560 843h12l547 -843h-63l-441 673l-448 -673h-167z" />
<glyph unicode="_" d="M54 -179h915v-69h-915v69z" />
<glyph unicode="`" d="M164 1318q0 23 18 40.5t41 17.5q32 0 87 -53l276 -268h-65l-277 173q-80 50 -80 90z" />
<glyph unicode="a" horiz-adv-x="1030" d="M-7 18q0 31 26 36q83 15 117 66q29 67 59 135l285 647q17 38 31 38q17 0 46 -64l338 -736q22 -48 41.5 -61.5t73.5 -22.5q28 -5 28 -31q0 -34 -26 -34q-16 0 -83 12q-45 8 -73 8q-30 0 -123 -18q-21 -4 -34 -4q-22 0 -22 26q0 24 3.5 29.5t25.5 9.5q75 15 75 38 q0 20 -38 104l-72 160h-341l-95 -222q-13 -30 -13 -43q0 -17 22 -28q6 -3 75 -16q11 -2 11 -27q0 -31 -20 -31q-19 0 -78 12q-50 10 -74 10q-35 0 -125 -20q-13 -3 -22 -3q-18 0 -18 30zM358 424h284l-112 251q-4 9 -32 79q-11 -27 -34 -84z" />
<glyph unicode="b" horiz-adv-x="890" d="M27 24q0 24 8 28q3 2 33 4q103 7 118.5 23t15.5 117v578q0 62 -26 75q-7 3 -89 12q-30 3 -36 7q-11 7 -11 32q0 30 26 30q12 0 103 -12q60 -8 109 -8q27 0 87.5 4t114.5 4q105 0 175 -53q78 -59 78 -161q0 -170 -200 -217q190 -31 249 -129q31 -52 31 -113 q0 -124 -108 -193q-92 -59 -223 -59q-34 0 -121 13q-54 8 -89 8q-28 0 -95 -9q-103 -14 -132 -14q-18 0 -18 23v10zM312 313q0 -147 1 -152q14 -78 93 -97q41 -10 79 -10q86 0 145.5 49.5t59.5 133.5q0 215 -330 215q-13 0 -48 -1v-138zM312 511q132 1 182 15 q119 34 119 160q0 111 -85 146q-49 20 -145 20q-60 0 -65.5 -5t-5.5 -38v-298z" />
<glyph unicode="c" horiz-adv-x="1006" d="M86 464q0 136 58 244q62 117 178 173q120 58 257 58q63 0 293 -27l34 -4l7 -152q0 -32 -29 -32q-34 0 -40 39q-11 65 -39 79q-67 34 -203 34q-190 0 -290 -110q-96 -105 -96 -296q0 -200 111 -310t311 -110q143 0 190 47q19 19 37 74q10 31 14 36q8 9 35 9q31 0 31 -18 q0 -5 -3 -18l-36 -159q-25 -3 -76 -12q-132 -24 -217 -24q-266 0 -407 151q-120 128 -120 328z" />
<glyph unicode="d" horiz-adv-x="1149" d="M31 25q0 22 11 27q5 2 32 4q107 7 124 22t17 145v495q0 104 -9.5 115.5t-111.5 28.5q-28 5 -35.5 11.5t-7.5 32.5q0 24 22 24q16 0 44 -4q125 -18 159 -18h3l283 11h20q149 0 275 -85q188 -128 188 -368q0 -167 -100 -295q-140 -179 -401 -179q-56 0 -113 7 q-123 15 -150 15q-47 0 -197 -22q-21 -3 -30 -3q-23 0 -23 36zM328 233q0 -77 9 -101q15 -41 74 -60q50 -17 117 -17q188 0 291 112q100 108 100 297q0 142 -76 244q-67 90 -165 122q-73 24 -208 24q-125 0 -133.5 -7.5t-8.5 -63.5v-550z" />
<glyph unicode="e" horiz-adv-x="850" d="M34 22q0 23 7 28q4 3 30 5q104 9 120 35q8 15 8 137v516q0 85 -18 100q-14 12 -105 20q-31 3 -31 36q0 28 21 28q5 0 19 -1q129 -12 269 -12q101 0 165 2l144 4q26 0 22 -42v-9q0 -23 6 -87q1 -15 1 -30q0 -16 -37 -16q-28 0 -33 43q-8 61 -57 70q1 0 -108 0h-147v-357 h236q47 0 60 8q18 11 24 53q5 32 36 32q30 0 30 -25q0 -4 -1 -16q-6 -70 -6 -92q0 -28 6 -65q3 -18 3 -25q0 -22 -32 -22q-30 0 -36 35q-8 41 -30 49q-7 2 -66 2h-224v-222q0 -98 35 -120q24 -15 133 -15q142 0 172 17q22 12 55 99q5 13 23 13q44 0 44 -18q0 -8 -3 -20 q-30 -121 -37 -167l-31 1l-383 13q-75 0 -243 -16q-10 -1 -15 -1q-26 0 -26 32z" />
<glyph unicode="f" horiz-adv-x="776" d="M33 16q0 24 4 28.5t28 10.5q96 23 117 49q15 19 15 128v515q0 79 -14.5 94.5t-95.5 21.5q-32 2 -37.5 8.5t-5.5 38.5q0 18 20 18q12 0 38 -3q104 -12 256 -12q38 0 162 3q76 2 157 3l14 -135q3 -29 3 -31q0 -19 -38 -19q-26 0 -31 35q-9 59 -34 72q-15 8 -84 8h-197v-358 h236q44 0 56.5 11.5t20.5 56.5q5 26 30 26q34 0 34 -26v-9l-5 -104q0 -10 6 -59q2 -17 2 -26q0 -22 -31 -22q-27 0 -33 23q-12 47 -28 56q-11 7 -66 7h-222v-199q0 -72 1 -81q7 -50 41 -64q21 -9 83 -22q31 -7 35 -9q10 -7 10 -32q0 -28 -28 -28q-21 0 -113 21 q-52 12 -89 12q-33 0 -145 -28q-28 -7 -49 -7q-23 0 -23 28z" />
<glyph unicode="g" horiz-adv-x="1070" d="M87 464q0 134 56 243q62 119 175 174q120 58 273 58q76 0 310 -24l10 -153v-7q0 -28 -36 -28q-18 0 -24 6q-2 2 -19 66q-9 36 -48 50q-70 25 -180 25q-389 0 -389 -407q0 -241 142 -341q110 -77 279 -77q114 0 148 36q20 21 20 116q0 65 -9 76q-18 21 -92 29 q-39 4 -39 31v7q0 28 20 27q6 0 90 -12q43 -6 74 -6q32 0 127 16q18 3 30 3q21 0 21 -31q0 -22 -13 -29q-4 -2 -35 -7q-59 -9 -68 -68v1q2 0 2 -115v-129q-27 5 -53 5q-28 0 -148 -10q-48 -4 -96 -4q-236 0 -367 108q-161 132 -161 371z" />
<glyph unicode="h" horiz-adv-x="1136" d="M29 32q0 18 36 25q95 18 115 53q14 24 14 132v441q0 103 -11 125q-17 36 -113 56q-28 6 -33 10q-8 6 -8 30q0 27 21 27q19 0 113 -22q52 -12 89 -12q41 0 159 30q20 5 36 5q22 0 22 -29q0 -24 -6.5 -29.5t-32.5 -11.5q-91 -21 -109 -48q-14 -21 -14 -121v-188h522v229 q0 65 -15 86q-20 28 -106 45q-42 8 -42 33q0 33 23 33q13 0 119 -23q51 -11 80 -11q33 0 162 30q17 4 34 4q20 0 20 -46q0 -15 -48 -26q-71 -16 -91 -35q-23 -24 -23 -92v-533q0 -69 9 -88q12 -33 113 -55q41 -9 41 -28q0 -40 -22 -40q-17 0 -103 21q-62 15 -95 15 q-34 0 -94 -14q-91 -21 -106 -21q-20 0 -20 29q0 24 9 31q5 4 33 10q50 10 70 19q39 18 47 51q5 22 5 109v197h-522v-228q0 -86 21 -110q18 -20 106 -40q37 -8 37 -32q0 -35 -25 -35q-27 0 -128 26q-31 8 -59 8q-44 0 -99 -13q-93 -22 -107 -22q-24 0 -24 43z" />
<glyph unicode="i" horiz-adv-x="493" d="M27 22q0 28 32 34q87 16 109 41.5t22 113.5v521q0 72 -25 96q-19 18 -96 35q-27 6 -32 10q-9 6 -9 29q0 30 21 30q15 0 126 -26q38 -9 76 -9q37 0 156 29q20 5 39 5q20 0 20 -37q0 -25 -59 -37q-70 -14 -89 -43q-15 -23 -15 -100v-485q0 -87 8 -114q11 -37 117 -59 q39 -8 39 -28v-8q0 -33 -26 -31q-18 1 -110 23q-50 12 -87 12q-45 0 -159 -30q-23 -6 -37 -6q-21 0 -21 34z" />
<glyph unicode="j" horiz-adv-x="504" d="M-8 -148q42 -5 73 -5q108 0 132 77q9 29 9 174v617q0 89 -24 113q-18 18 -112 40q-28 6 -28 27v11q0 25 23 25q13 0 115 -23q49 -11 85 -11q26 0 164 29q24 5 39 5q18 0 18 -43q0 -16 -34 -24q-88 -22 -105 -38q-22 -22 -23 -106l-7 -523q-3 -199 -37 -276 q-79 -177 -259 -177q-11 0 -29 1v107z" />
<glyph unicode="k" horiz-adv-x="972" d="M31 20q0 27 34 36q60 15 73 20q43 18 52 49q6 20 6 105v468q0 84 -7 102q-17 44 -123 64q-35 7 -35 35q0 31 27 31q11 0 115 -23q45 -10 80 -10q36 0 155 30q16 4 34 4q22 0 22 -40q0 -19 -33 -28q-86 -24 -102 -39q-21 -22 -21 -102v-503q0 -92 19 -118q22 -30 108 -45 q38 -6 38 -31q0 -36 -29 -36q-13 0 -105 23q-52 13 -92 13q-38 0 -155 -31q-23 -6 -36 -6q-25 0 -25 32zM324 466l337 342q23 23 23 33q0 15 -61 24q-30 4 -36 9t-6 33q0 24 17 24q18 0 99 -15q38 -7 62 -7q36 0 105 15q27 6 41 6q12 0 17 -39v-3q0 -20 -48 -27 q-60 -9 -129 -78l-295 -293l388 -389q85 -85 127 -91q34 -5 34 -18q0 -18 -65 -18q-93 0 -167 51q-39 26 -132 122z" />
<glyph unicode="l" horiz-adv-x="785" d="M20 23q0 23 10 29q6 3 34 5q69 5 76 6q49 10 56 41q4 17 4 142v446q0 88 -8 112q-13 38 -105 57q-35 7 -39 10q-13 7 -13 33q0 27 24 26q17 -1 115 -23q49 -11 85 -11q35 0 154 29q25 6 46 6q18 0 18 -26v-15q0 -20 -53 -32q-78 -17 -97 -45q-15 -23 -15 -109v-463 q0 -85 2 -98q10 -61 55 -69q34 -7 166 -7q94 0 125 35q11 12 38 83q6 13 29 13h7q31 0 31 -18q0 5 -42 -190q-292 17 -408 17q-74 0 -253 -16q-11 -1 -14 -1q-28 0 -28 33z" />
<glyph unicode="m" horiz-adv-x="1373" d="M38 22q0 27 40 35q69 13 83 45q3 8 12 105l63 681q5 52 29 52q15 0 75 -107l318 -572q13 -24 35 -67q29 61 54 111l308 609q13 26 26 26q25 0 32 -47l103 -734q8 -57 26.5 -75.5t76.5 -29.5q32 -6 32 -32q0 -34 -21 -34q-17 0 -92 16q-52 11 -76 11q-20 0 -128 -23 q-14 -3 -32 -3q-23 0 -23 28q0 34 36 40q91 14 91 67q0 18 -4 48l-58 435q-4 30 -11 94l-324 -649q-13 -26 -29 -26q-15 0 -34 35l-348 633q-4 -39 -8 -91l-31 -393q-4 -51 -4 -62q0 -48 24 -66q16 -12 70 -23q30 -6 34 -9q10 -7 10 -31q0 -29 -24 -29q-17 0 -88 14 q-41 8 -64 8q-25 0 -69 -9q-69 -14 -87 -14q-23 0 -23 33z" />
<glyph unicode="n" horiz-adv-x="1103" d="M18 19q0 30 37 35q86 11 104 52q9 20 9 128v561q0 35 -2 110q0 6 -1 15q0 20 17 20t78 -70l586 -676v553q0 72 -30 93q-14 9 -104 28q-31 7 -31 38q0 27 24 27q12 0 95 -18q50 -11 83 -11q34 0 151 26q13 3 28 3q17 0 17 -44q0 -15 -47 -28q-70 -20 -81 -29 q-19 -16 -19 -78v-715q0 -60 -25 -60q-18 0 -56 44l-545 628q-10 11 -35 42l-18 23v-35q0 -7 1 -24v-29v-421q0 -91 18.5 -113t107.5 -37q28 -5 34.5 -10t6.5 -30q0 -28 -29 -28q-19 0 -100 16q-51 10 -80 10q-23 0 -123 -21q-28 -6 -47 -6q-24 0 -24 31z" />
<glyph unicode="o" horiz-adv-x="1120" d="M75 459q0 223 155 355q143 121 333 123h3q175 0 314 -109q167 -132 167 -366q0 -184 -116 -318q-47 -54 -115 -93q-121 -69 -257 -69q-236 0 -375 163q-109 128 -109 314zM200 467q0 -155 85 -273q97 -134 273 -134q166 0 268 122q96 115 96 285q0 145 -67 242 q-102 147 -293 149h-3q-159 0 -261 -116q-98 -112 -98 -275z" />
<glyph unicode="p" horiz-adv-x="791" d="M45 15v20q0 14 31 18q82 10 102 40q15 24 15 114v522q0 90 -10 106q-14 22 -94 30q-27 3 -32 8.5t-5 33.5q0 23 19 23q10 0 111 -13q46 -6 67 -6h5l227 9h14q92 0 165 -51q82 -58 82 -173q0 -117 -92 -192q-77 -63 -198 -63q-60 0 -100 33q-17 14 -17 20q0 11 16 11 q9 0 28.5 -2t29.5 -2q223 0 223 174q0 179 -227 179q-96 0 -98 -17q-2 -10 -2 -52v-583q0 -90 26 -114q23 -21 117 -32q33 -4 35 -5q14 -5 14 -26q0 -36 -27 -36q-25 0 -123 18q-60 11 -98 11q-29 0 -144 -26q-18 -4 -35 -4q-25 0 -25 27z" />
<glyph unicode="q" horiz-adv-x="1123" d="M74 460q0 199 128 330q144 147 363 147q210 0 351 -145q128 -131 128 -328q0 -187 -123 -324l81 -72q54 -48 56 -50q28 -22 64 -37l-2 -17q-28 -1 -63 -1q-68 0 -116 30q-27 16 -93 81q-131 -93 -297 -93q-217 0 -353 147q-124 134 -124 332zM198 461q0 -162 82 -268 q103 -133 275 -133q173 0 279 133q87 110 87 267q0 158 -80 261q-104 134 -277 135h-3q-157 0 -264 -113q-99 -104 -99 -282z" />
<glyph unicode="r" horiz-adv-x="938" d="M31 17q0 24 9 31q4 3 33 9q82 18 102.5 42.5t20.5 106.5v536q0 82 -10 96q-13 19 -88 27q-30 3 -34 6q-11 5 -11 28q0 31 21 31q15 0 34 -2q149 -16 164 -16q28 0 109 5q48 3 76 3q182 0 250 -110q31 -51 31 -109q0 -168 -176 -253l235 -299q103 -132 137 -139 q27 -11 27 -21q0 -13 -46 -13q-93 0 -183 85q-38 36 -134 161l-148 192q-68 -6 -125 -6h-16v-182q0 -98 16 -122q19 -29 109 -46q41 -8 41 -29q0 -40 -19 -40q-25 0 -118 22q-59 14 -99 14q-27 0 -134 -28q-31 -8 -55 -8q-19 0 -19 28zM309 468q122 1 158 8q84 18 121 88 q27 50 27 113q0 98 -65 145q-52 37 -84 37h-2q-145 -6 -150 -10t-5 -28v-353z" />
<glyph unicode="s" horiz-adv-x="745" d="M68 188q0 24 33 24q24 0 30 -7.5t11 -34.5q21 -119 191 -119q89 0 148 42q66 47 66 132q0 84 -78 138q-39 27 -161 79q-107 45 -152 87q-67 64 -67 166q0 129 111 196q76 46 191 46q58 0 180 -17q19 -3 56 -7l1 -165q1 -19 -31 -19q-30 0 -36 26q-10 44 -15 56 q-12 26 -39 40q-42 21 -114 21q-78 0 -132 -35q-63 -41 -63 -115q0 -110 152 -175q193 -83 243 -133q67 -67 67 -161q0 -129 -99 -201q-87 -64 -221 -64q-111 0 -248 21l-13 2q-1 27 -6 89q-5 56 -5 88z" />
<glyph unicode="t" horiz-adv-x="909" d="M1 808q0 6 2 13l24 98q4 18 19 18q19 0 78 -13t92 -13h518q74 0 119 21q21 10 30 10q12 0 12 -12q0 -7 -2 -14l-25 -93q-6 -22 -20 -22q-10 0 -24 11q-43 33 -143 33h-172v-645q0 -78 24 -103q19 -21 101 -39q29 -6 34.5 -11t5.5 -30q0 -28 -23 -28q-20 0 -115 24 q-48 12 -89 12q-38 0 -148 -29q-26 -7 -48 -7q-21 0 -21 41q0 20 42 30q97 24 115 65q8 19 8 145v575h-179q-110 0 -171 -38q-19 -12 -30 -12q-14 0 -14 13z" />
<glyph unicode="u" horiz-adv-x="1065" d="M32 910q0 22 24 22q17 0 38 -4q118 -22 136 -22q34 0 129 21q23 5 44 5q18 0 18 -48q0 -15 -46 -24q-59 -11 -78 -29q-20 -20 -20 -70v-9l2 -58v-61q0 -228 35 -384q20 -90 84 -143.5t155 -53.5q113 0 182 85q48 59 67 218q6 49 6 73l3 294v14q0 59 -8 78q-14 36 -71 49 q-30 7 -35 10q-9 7 -9 32v7q0 20 24 20q11 0 92 -17q38 -8 65 -8t113 20q17 4 33 4q20 0 20 -26q0 -27 -6 -31t-62 -23q-44 -15 -54 -62q-1 -6 -5 -90l-9 -211q-9 -213 -55 -308q-93 -192 -312 -192q-135 0 -229 79q-119 100 -133 397l-12 248q0 12 -1 36q-2 65 -14 83 q-15 24 -73 34q-26 4 -32 11.5t-6 33.5z" />
<glyph unicode="v" horiz-adv-x="1004" d="M-17 907q0 26 22 26q14 0 31 -3q100 -18 132 -18q39 0 127 15q23 4 35 4q19 0 19 -30q0 -33 -40 -40q-70 -13 -70 -30q0 -16 35 -97l218 -505q8 -20 31 -76q8 19 12.5 31.5t17.5 44.5l214 511q28 67 28 80q0 28 -89 46q-26 5 -31.5 10.5t-5.5 30.5t21 25q13 0 84 -12 q47 -8 69 -8q26 0 122 16q18 3 27 3q17 0 17 -27v-20q0 -13 -68 -30q-30 -8 -46 -35q-1 -1 -25 -56l-326 -749q-15 -34 -36 -34q-23 0 -38 33l-330 738q-32 71 -41 81q-17 19 -79 33q-25 6 -31 12t-6 30z" />
<glyph unicode="w" horiz-adv-x="1379" d="M-5 903q0 29 17 29q12 0 37 -5q76 -15 116 -15q59 0 129 14q20 4 31 4q17 0 17 -43q0 -14 -85 -37q-21 -6 -21 -20q0 -6 11 -38l190 -546q10 -30 17 -54q6 17 19 58l7 22l173 492q-18 61 -43 78q-17 11 -88 22q-29 4 -29 41q0 25 24 25q17 0 96 -15q48 -9 79 -9 q34 0 85 9q85 15 102 15q21 0 21 -44q0 -19 -57 -27q-86 -12 -86 -40q0 -7 12 -43l162 -486q19 -58 30 -95q7 21 23 66l9 27l164 462q19 54 19 71q0 28 -75 44q-22 5 -27 10.5t-5 27.5q0 28 19 28q13 0 83 -13q33 -6 60 -6q26 0 110 16q10 2 24 2q22 0 22 -23q0 -25 -4 -31 t-26 -12q-51 -13 -67 -28.5t-34 -65.5l-274 -759q-12 -33 -34 -33q-20 0 -33 38l-200 580q-7 20 -19 58q-10 -32 -18 -56l-10 -29l-195 -553q-13 -38 -34 -38q-20 0 -33 36l-272 750q-21 59 -35 72q-16 17 -72 29q-32 7 -32 38z" />
<glyph unicode="x" horiz-adv-x="993" d="M12 24q0 28 38 34q65 10 94 33q12 10 67 81l225 287l-250 337q-28 38 -49 50.5t-69 19.5q-38 6 -38 37q0 30 21 30q12 0 90 -14q44 -8 76 -8q30 0 145 20q12 2 29 2q18 0 18 -24q0 -29 -7 -36t-37 -11q-67 -8 -67 -28q0 -7 23 -38l190 -254l187 241q32 41 32 52 q0 15 -75 32q-29 6 -32 9q-8 6 -8 30q0 26 20 26q14 0 93 -13q42 -7 66 -7q18 0 74 9q69 11 91 11q20 0 20 -27v-12q1 -20 -42 -30q-72 -17 -85 -25q-16 -10 -59 -65l-231 -294l248 -334q38 -51 57.5 -64t80.5 -27q30 -7 30 -34q0 -30 -27 -30q-12 0 -89 14q-39 7 -73 7 q-30 0 -133 -17q-18 -3 -38 -3t-20 29q0 33 31 37q79 10 79 30q0 10 -57 88l-133 182q-12 17 -29 40q-18 -22 -51 -63l-155 -201q-26 -34 -26 -43q0 -21 51 -29l43 -7q21 -8 21 -31q0 -32 -23 -32q-12 0 -81 11q-50 8 -87 8q-28 0 -123 -16q-18 -3 -28 -3q-18 0 -18 33z" />
<glyph unicode="y" horiz-adv-x="897" d="M-20 905q0 27 20 27q13 0 29 -3q84 -16 116 -16q29 0 135 15q21 3 31 3q18 0 18 -29q0 -27 -18 -35q-3 -2 -45 -9q-38 -7 -38 -24q0 -10 17 -36l230 -350l223 355q15 24 15 34q0 16 -55 25q-39 6 -45 10q-12 8 -12 41q0 18 17 18t94 -12q38 -6 59 -6q25 0 101 13 q17 3 30 3q19 0 19 -32q0 -20 -4 -24.5t-25 -8.5q-68 -14 -102 -67l-275 -430v-186q0 -70 29 -93q17 -14 98 -32q37 -8 37 -31q0 -37 -28 -37q-12 0 -105 23q-53 13 -90 13q-47 0 -141 -27q-35 -10 -54 -10q-24 0 -24 32q0 31 41 39q69 13 91 29q35 24 35 83v195l-283 423 q-29 44 -45 55t-65 22q-31 7 -31 40z" />
<glyph unicode="z" horiz-adv-x="866" d="M22 15q0 8 18 32l595 789h-446q-62 0 -100 -32q-16 -13 -25 -13q-13 0 -13 16v9l15 98q3 18 15 18q8 0 25 -6q43 -15 111 -15h557q28 0 28 -14q0 -6 -18 -30l-594 -790h541q43 0 85 24q16 9 25 9q12 0 12 -12q0 -7 -1 -10l-12 -78q-3 -21 -18 -21l-82 11h-695 q-23 0 -23 15z" />
<glyph unicode="{" horiz-adv-x="582" d="M123 641v82q82 11 82 137v363q0 114 54 166t165 52h126v-85h-98q-150 0 -150 -151v-372q0 -65 -14 -93q-18 -35 -72 -58q86 -25 86 -150v-373q0 -150 150 -150h98v-85h-126q-219 0 -219 218v363q0 120 -82 136z" />
<glyph unicode="|" d="M470 -341v1706h84v-1706h-84z" />
<glyph unicode="}" horiz-adv-x="582" d="M32 9h97q151 0 151 150v373q0 65 14 93q18 35 72 57q-86 25 -86 151v372q0 151 -151 151h-97v85h126q219 0 219 -218v-363q0 -61 13 -88q17 -38 69 -49v-82q-82 -9 -82 -136v-363q0 -114 -54 -166t-165 -52h-126v85z" />
<glyph unicode="~" horiz-adv-x="1365" d="M245 1277q124 190 286 190q59 0 190 -45q110 -38 163 -38q120 0 212 118l25 -16q-45 -75 -118 -128q-82 -60 -161 -60q-45 0 -135 30q-173 58 -244 58q-62 0 -111 -37q-26 -21 -82 -88z" />
<glyph unicode="&#xa1;" horiz-adv-x="536" d="M169 837q0 40 29 69t69 29q42 1 71 -28t29 -71t-29 -70.5t-71 -28.5q-41 0 -69.5 29.5t-28.5 70.5zM191 108q0 37 14 166l35 323l59 33l35 -388q14 -155 14 -148q0 -108 -78 -108q-79 0 -79 122z" />
<glyph unicode="&#xa2;" horiz-adv-x="1018" d="M141 415q0 205 114 335q119 136 321 136q33 0 72 -4l50 142h70l-55 -157q134 -33 134 -109q0 -69 -63 -69q-33 0 -108 70l-226 -646q67 -28 132 -28q72 0 129 26q36 17 112 73q15 11 23 11q6 0 18.5 -14t12.5 -21q0 -14 -56 -64q-130 -116 -299 -116q-56 0 -111 16 l-64 -178h-70l70 202q-34 14 -71 50q-135 129 -135 345zM254 476q0 -93 32 -183q38 -108 105 -147l225 644q-42 16 -81 16q-127 0 -207 -104q-74 -96 -74 -226z" />
<glyph unicode="&#xa3;" horiz-adv-x="1018" d="M51 24q0 65 145 95q114 196 114 347q0 86 -32 175h-138q-35 0 -42 15q-4 8 -4 50q0 26 39 26h111q-95 207 -95 298q0 172 134 267q117 84 297 84q49 0 157 -14q55 -7 104 -8l10 -219q8 -47 -31 -47q-30 0 -41 37q-29 94 -51 121q-44 53 -164 53q-102 0 -179 -49 q-108 -69 -108 -218q0 -65 34 -150l66 -140l7 -15l300 -1q43 -3 43 -24q0 -58 -23 -64q-6 -2 -34 -2h-259q18 -55 18 -125q0 -217 -160 -388q65 7 117 7q39 0 226 -14q27 -2 54 -2q115 0 183 135q50 99 80 99q34 0 34 -27q0 -9 -67 -162q-73 -166 -79 -183q-149 44 -520 51 l-93 2q-42 -54 -96 -54q-57 0 -57 44z" />
<glyph unicode="&#xa4;" horiz-adv-x="1606" d="M180 138l203 205q-121 151 -121 340q0 186 121 339l-203 203l82 79l201 -202q151 121 345 121q192 0 336 -120l203 201l79 -79l-204 -203q122 -157 122 -340q0 -180 -122 -339l204 -205l-79 -80l-203 204q-147 -120 -335 -120q-195 0 -345 120l-202 -204zM374 683 q0 -182 125.5 -305.5t307.5 -123.5q179 0 300 125q126 130 126 299q0 178 -126 308q-121 125 -300 126q-181 1 -307 -123.5t-126 -305.5z" />
<glyph unicode="&#xa5;" horiz-adv-x="997" d="M-4 1314q0 27 20 27q13 0 29 -3q84 -16 116 -16q36 0 135 15q20 3 31 3q18 0 18 -29q0 -27 -19 -35q-3 -2 -42.5 -9t-39.5 -24q0 -10 17 -36l264 -404l258 409q14 22 14 34q0 16 -55 25q-40 7 -46 10q-11 8 -11 41q0 18 17 18q16 0 94 -12q39 -6 59 -6q26 0 101 13 q17 3 30 3q19 0 19 -32q0 -27 -28 -33q-46 -10 -61 -19q-19 -12 -42 -48l-268 -420l250 -1q43 -3 43 -24q0 -58 -24 -64q-6 -2 -34 -2h-276v-114l263 -1q44 -3 44 -24q0 -58 -24 -64q-6 -2 -34 -2h-249v-310q0 -70 29 -92q17 -14 98 -32q37 -8 37 -31q0 -37 -28 -37 q-12 0 -105 23q-53 13 -90 13q-47 0 -141 -27q-35 -10 -54 -10q-24 0 -24 32q0 31 41 39q69 13 91 29q35 24 35 83v320h-280q-34 0 -41 16q-4 8 -4 49q0 26 38 26h287v114h-307q-35 0 -42 15q-4 8 -4 50q0 26 39 26h274l-277 411q-29 43 -44 54q-18 14 -66 24q-31 7 -31 39z " />
<glyph unicode="&#xa6;" d="M470 314h84v-655h-84v655zM470 691v674h84v-674h-84z" />
<glyph unicode="&#xa7;" horiz-adv-x="952" d="M145 -192q0 31 21.5 51.5t52.5 20.5q29 0 128 -39q25 -10 58 -10q62 0 100 44q36 41 36 104q0 101 -68 226q-16 30 -96 151l-75 114q-119 181 -119 351q0 152 71 293.5t194.5 234t251.5 92.5q121 0 121 -81q0 -74 -83 -74q-26 0 -98 29q-35 14 -69 14q-76 0 -118 -52 q-38 -48 -38 -126q0 -133 157 -343l62 -83q148 -198 148 -395q0 -207 -141 -401q-147 -202 -368 -202q-128 0 -128 81zM273 894q0 -175 125 -364l59 -89q150 -226 150 -377q0 -55 -19 -116q99 134 99 319q0 173 -124 354l-91 133q-67 98 -90 156q-29 75 -29 176q0 53 15 105 q-95 -145 -95 -297z" />
<glyph unicode="&#xa8;" d="M231 1232q0 39 27 65.5t66 26.5t65 -27t26 -66q0 -37 -27 -64t-64 -27q-39 0 -66 26.5t-27 65.5zM608 1232q0 39 27 65t66 27q38 0 64.5 -27t26.5 -66q0 -37 -27 -64t-64 -27q-39 0 -66 26.5t-27 65.5z" />
<glyph unicode="&#xa9;" horiz-adv-x="1589" d="M82 681q0 201 104.5 369t284.5 259q151 76 332 76q194 0 365.5 -105t260.5 -278q78 -151 78 -320q0 -200 -105 -367.5t-284 -257.5q-153 -77 -323 -77q-201 0 -372 103t-263 281q-78 151 -78 317zM172 681q0 -261 180 -445t440 -184q261 0 441 184t180 446 q0 179 -90.5 329.5t-248.5 232.5q-131 68 -275 69q-260 3 -445 -185q-182 -184 -182 -447zM352 705q0 102 43 186q113 220 409 220q62 0 195 -21q19 -3 68 -9l7 -130q2 -40 -32 -40q-29 0 -40 50q-7 33 -20 44q-44 39 -196 39q-133 0 -222 -79q-102 -90 -102 -279 q0 -195 130 -291q94 -69 226 -69q140 0 182 51q10 12 27 66q9 29 37 29q35 0 35 -28q0 -8 -6 -35l-27 -121l-26 -4q-188 -29 -230 -29q-216 0 -337 117.5t-121 332.5z" />
<glyph unicode="&#xaa;" horiz-adv-x="564" d="M40 634v97h496v-97h-496zM41 955q0 89 86 137q53 30 165 52l76 15v11q0 68 -21 94q-24 30 -90 30q-54 0 -60 -10q-1 -2 -18 -44q-12 -29 -39 -29q-35 0 -35 32q0 13 13 58q17 61 27 64q25 8 111 8q108 0 154.5 -43t46.5 -149v-152q0 -69 3 -84q9 -45 49 -58q27 -9 27 -22 q0 -18 -23 -36.5t-42 -18.5q-51 0 -95 74q-82 -76 -171 -76q-70 0 -117 39.5t-47 107.5zM140 963q0 -77 85 -77q65 0 112 43q30 27 30 78v62q0 16 -4 17q-35 0 -108 -20q-115 -31 -115 -103z" />
<glyph unicode="&#xab;" horiz-adv-x="813" d="M117 438l207 299h97l-205 -299l205 -289h-97zM388 438l208 299h95l-202 -299l206 -289h-99z" />
<glyph unicode="&#xac;" d="M76 478v68h872v-546h-155v478h-717z" />
<glyph unicode="&#xad;" horiz-adv-x="428" d="M0 395v97h428v-97h-428z" />
<glyph unicode="&#xae;" horiz-adv-x="1589" d="M82 681q0 201 104.5 369t284.5 259q151 76 332 76q194 0 365.5 -105t260.5 -278q78 -151 78 -320q0 -200 -105 -367.5t-284 -257.5q-153 -77 -323 -77q-201 0 -372 103t-263 281q-78 151 -78 317zM172 682q0 -261 180 -445.5t440 -184.5q256 0 443 188q-88 5 -151 56 q-41 33 -108 123l-163 220q-32 -3 -120 -4v-158q0 -93 3 -103q11 -43 73 -52q32 -4 32 -34q0 -32 -28 -32q-17 0 -61 12t-66 12q-20 0 -63.5 -11.5t-64.5 -11.5q-29 0 -29 32q0 23 23 32q22 4 44 9q35 7 40 61q-1 -12 -1 82v450q0 69 -2 76q-8 35 -50 44q-35 7 -37 8 q-15 7 -15 30q0 31 24 31q22 0 67.5 -6t68.5 -6q22 0 101 4q40 2 64 2q224 0 224 -200q0 -140 -128 -226l120 -161q155 -207 198 -230q25 -13 31 -20q152 181 152 413q0 262 -182.5 446.5t-438.5 184.5q-176 0 -325 -93t-228 -251q-67 -134 -67 -287zM693 702q41 -2 53 -2 q188 0 188 176q0 66 -36 111q-39 48 -104 48q-61 0 -87 -2q-14 -1 -14 -19v-312z" />
<glyph unicode="&#xaf;" d="M54 1543v69h915v-69h-915z" />
<glyph unicode="&#xb0;" horiz-adv-x="679" d="M96 1143q0 103 71.5 173t174.5 71q101 1 171.5 -72t70.5 -174q0 -99 -71.5 -170t-170.5 -71q-102 0 -174 70.5t-72 172.5zM174 1143q0 -70 48.5 -117.5t118.5 -47.5q68 0 116.5 48t48.5 116q0 69 -48 118t-117 49q-70 1 -118.5 -47.5t-48.5 -118.5z" />
<glyph unicode="&#xb1;" horiz-adv-x="1158" d="M91 0v75h976v-75h-976zM91 576v74h448v426h77v-426h451v-74h-451v-423h-77v423h-448z" />
<glyph unicode="&#xb2;" horiz-adv-x="686" d="M53 534v45q132 125 177 170q104 105 159 183q75 106 75 198q0 68 -46.5 108t-115.5 40q-152 0 -175 -160q-3 -20 -23 -20q-23 0 -23 47q0 81 44 137q66 84 197 84q128 0 195 -78q50 -58 50 -138q0 -134 -149 -299q-76 -85 -255 -233q48 2 60 2h132q66 0 89 11 q28 13 60 65l22 36q17 28 39 28q28 0 28 -23q0 -3 -44 -97q-48 -100 -53 -114q-47 14 -208 14q-166 0 -235 -6z" />
<glyph unicode="&#xb3;" horiz-adv-x="685" d="M58 709q0 63 56 63q50 0 53 -58q4 -65 17 -85q34 -51 121 -51q85 0 144.5 51t59.5 135t-71 127q-59 36 -148 36q-64 0 -159 -24l35 110q74 -16 134 -16q109 0 158 58q36 43 36 91q0 64 -58 101q-49 32 -117 32q-161 0 -174 -128q-4 -39 -22 -39q-29 0 -29 59q0 66 44 119 q64 76 186 76q96 0 163 -51q74 -56 74 -148q0 -128 -115 -183q68 -18 110 -72t42 -124q0 -81 -53 -150q-86 -111 -246 -111q-130 0 -195 70q-46 49 -46 112z" />
<glyph unicode="&#xb4;" d="M439 1055l290 286q35 35 67 35q63 0 63 -62q0 -36 -47 -65l-310 -194h-63z" />
<glyph unicode="&#xb6;" horiz-adv-x="1076" d="M82 993q0 179 119 277q110 91 292 91q30 0 91 -4.5t92 -4.5q48 0 133 38l18 8q11 5 24 10q6 0 13.5 -12.5t7.5 -19.5q-1 -3 -5 -8q-14 -17 -14 -72v-1546q0 -46 32 -46q8 0 24.5 2.5t24.5 2.5q13 0 13 -31q0 -12 -21 -20l-163 -64q-5 -2 -10 -2q-18 0 -18 19v1583 q0 50 -1 56q-6 31 -36 31q-10 0 -49 -7l-50 -9v-1697q0 -39 -28 -50l-81 -31q-21 -8 -26 -8q-7 0 -10 16q-2 7 -3.5 11.5t-1.5 7.5q0 5 19 22q13 12 13 67v1037q-153 1 -220 32q-179 83 -179 321z" />
<glyph unicode="&#xb7;" horiz-adv-x="498" d="M150 454q0 41 29 69.5t71 29.5q40 0 69 -29.5t29 -70.5q0 -40 -29 -69t-69 -29q-42 0 -71 28.5t-29 70.5z" />
<glyph unicode="&#xb8;" d="M347 -321l21 54q66 -23 109 -23q91 0 91 68q0 60 -70 60q-17 0 -47 -6l-29 27l78 141h66l-59 -105q29 3 45 3q72 0 105 -46q20 -28 20 -63q0 -68 -64 -107q-55 -33 -127 -33q-75 0 -139 30z" />
<glyph unicode="&#xb9;" horiz-adv-x="685" d="M149 1159q0 11 18 25l230 185l31 -17q-10 -62 -10 -149v-378q0 -27 1 -61l2 -69q-1 -62 14.5 -80.5t76.5 -26.5q42 -6 42 -28q0 -30 -27 -30q-20 0 -94 14q-42 8 -66 8q-20 0 -97 -14q-44 -8 -62 -8q-27 0 -27 30q0 23 44 28q86 10 100 70v145v289q0 86 -3 147l-114 -95 q-18 -15 -29 -15q-30 0 -30 30z" />
<glyph unicode="&#xba;" horiz-adv-x="657" d="M55 1093q0 108 62 187q75 95 217 95q135 0 212 -102q55 -73 55 -183q0 -111 -65 -189q-77 -92 -209 -92q-123 0 -197.5 80t-74.5 204zM80 634v97h496v-97h-496zM154 1094q0 -91 40 -148q46 -66 134 -66q87 0 133 63q42 56 42 146q0 212 -172 215q-88 2 -135 -62 q-42 -57 -42 -148z" />
<glyph unicode="&#xbb;" horiz-adv-x="813" d="M117 149l207 289l-202 299h94l208 -299l-208 -289h-99zM391 149l206 289l-206 299h98l206 -299l-206 -289h-98z" />
<glyph unicode="&#xbc;" horiz-adv-x="1590" d="M148 1158q0 12 17 26l231 185l31 -17q-10 -70 -10 -149v-378q0 -35 1 -61q3 -65 2 -70q-2 -61 14 -79.5t77 -26.5q42 -6 42 -28q0 -30 -27 -30q-20 0 -94 14q-42 8 -67 8q-19 0 -96 -14q-44 -8 -62 -8q-27 0 -27 30q0 23 44 28q86 9 100 69v146v289q0 77 -3 146l-114 -95 q-18 -15 -29 -15q-30 0 -30 30zM397 -17l714 1399h80l-713 -1399h-81zM956 257q0 11 19 32q16 18 86 112l292 393q28 37 39 36q2 0 4 -1l26 -10q10 -4 10 -16l-2 -21q-4 -43 -4 -103v-386h106v-74h-106v-120q0 -59 -29 -105h-105q39 54 39 137v88h-227q-43 0 -115 -3 q-33 -1 -33 41zM1059 293h272l6 372z" />
<glyph unicode="&#xbd;" horiz-adv-x="1590" d="M148 1158q0 12 17 26l231 185l31 -17q-10 -70 -10 -149v-378q0 -35 1 -61q3 -65 2 -70q-2 -61 14 -79.5t77 -26.5q42 -6 42 -28q0 -30 -27 -30q-20 0 -94 14q-42 8 -67 8q-19 0 -96 -14q-44 -8 -62 -8q-27 0 -27 30q0 23 44 28q86 9 100 69v146v289q0 77 -3 146l-114 -95 q-18 -15 -29 -15q-30 0 -30 30zM397 -17l714 1399h80l-713 -1399h-81zM957 -4v46q120 111 177 169q99 101 158 184q76 107 76 197q0 68 -46.5 108t-115.5 40q-151 0 -175 -159q-3 -20 -23 -20q-23 0 -23 45q0 83 44 139q66 84 197 84q128 0 195 -78q50 -59 50 -138 q0 -134 -149 -299q-76 -85 -255 -233q43 2 60 2h132q66 0 89 11q28 13 60 65l22 36q17 28 39 28q28 0 28 -24q0 -2 -44 -96q-46 -98 -52 -114q-49 14 -201 14q-171 0 -243 -7z" />
<glyph unicode="&#xbe;" horiz-adv-x="1592" d="M58 709q0 63 56 63q49 0 52 -57q4 -64 18 -86q33 -51 121 -51q85 0 144.5 51t59.5 134q0 84 -70 127q-58 37 -147 37q-67 0 -161 -24l35 110q70 -16 135 -16q109 0 157 57q36 42 36 91q0 65 -57 102q-50 31 -118 31q-160 0 -174 -127q-4 -39 -21 -39q-30 0 -30 58 q0 66 44 119q64 77 186 77q96 0 163 -51q74 -56 74 -148q0 -129 -114 -184q68 -18 109.5 -72t41.5 -124q0 -80 -53 -149q-86 -111 -247 -111q-129 0 -194 70q-46 49 -46 112zM399 -17l714 1399h79l-712 -1399h-81zM957 257q0 11 19 32q16 18 86 112l292 393q28 37 39 36 q1 0 3 -1l27 -10q10 -4 10 -16q0 -1 -2 -21q-4 -40 -4 -103v-386h106v-74h-106v-120q0 -58 -29 -105h-105q39 54 39 137v88h-227q-43 0 -115 -3q-33 -1 -33 41zM1060 293h272l6 372z" />
<glyph unicode="&#xbf;" horiz-adv-x="634" d="M102 587q80 69 216 69q159 0 223 -106q28 -47 28 -98q0 -103 -108 -172l-88 -48q-56 -35 -56 -72q0 -57 87 -55l37 1q22 1 22 -17q0 -7 -11 -16l-105 -85q-6 -5 -9 -5q-5 0 -39 21q-103 64 -103 126q0 68 74 118q16 11 116 58q115 54 115 147q0 65 -52 103 q-47 35 -114 35q-60 0 -105 -27q-28 -17 -84 -71zM236 837q0 40 29 69t69 29q42 1 71 -28t29 -71t-29 -70.5t-71 -28.5q-41 0 -69.5 29.5t-28.5 70.5z" />
<glyph unicode="&#xc0;" horiz-adv-x="1320" d="M-27 14q0 37 18 45q4 2 55 8q60 7 115 105q19 33 68 151l328 787q63 150 87 220q19 53 35 53q18 0 26 -24q41 -119 65 -181l360 -917q45 -114 62 -137q35 -44 127 -65q28 -6 28 -34q0 -36 -40 -36q-26 0 -86.5 16t-95.5 16q-29 0 -84.5 -15t-80.5 -15q-32 0 -32 37 q0 27 32 33q74 13 74 54q0 30 -26 96l-135 343h-439l-131 -321q-32 -78 -32 -109q0 -50 79 -61q39 -6 39 -29q0 -43 -23 -43q-30 0 -89 14.5t-87 14.5q-42 0 -111 -19q-43 -12 -64 -12q-42 0 -42 25zM289 1692q0 69 69 69q26 0 63 -26l336 -239h-78l-329 124q-61 23 -61 72z M469 640h370l-177 481z" />
<glyph unicode="&#xc1;" horiz-adv-x="1320" d="M-27 14q0 37 18 45q4 2 55 8q60 7 115 105q19 33 68 151l328 787q63 150 87 220q19 53 35 53q18 0 26 -24q41 -119 65 -181l360 -917q45 -114 62 -137q35 -44 127 -65q28 -6 28 -34q0 -36 -40 -36q-26 0 -86.5 16t-95.5 16q-29 0 -84.5 -15t-80.5 -15q-32 0 -32 37 q0 27 32 33q74 13 74 54q0 30 -26 96l-135 343h-439l-131 -321q-32 -78 -32 -109q0 -50 79 -61q39 -6 39 -29q0 -43 -23 -43q-30 0 -89 14.5t-87 14.5q-42 0 -111 -19q-43 -12 -64 -12q-42 0 -42 25zM469 640h370l-177 481zM563 1496l335 239q36 26 64 26q69 0 69 -69 q0 -49 -62 -72l-328 -124h-78z" />
<glyph unicode="&#xc2;" horiz-adv-x="1320" d="M-27 14q0 37 18 45q4 2 55 8q60 7 115 105q19 33 68 151l328 787q63 150 87 220q19 53 35 53q18 0 26 -24q41 -119 65 -181l360 -917q45 -114 62 -137q35 -44 127 -65q28 -6 28 -34q0 -36 -40 -36q-26 0 -86.5 16t-95.5 16q-29 0 -84.5 -15t-80.5 -15q-32 0 -32 37 q0 27 32 33q74 13 74 54q0 30 -26 96l-135 343h-439l-131 -321q-32 -78 -32 -109q0 -50 79 -61q39 -6 39 -29q0 -43 -23 -43q-30 0 -89 14.5t-87 14.5q-42 0 -111 -19q-43 -12 -64 -12q-42 0 -42 25zM321 1501l291 259h102l286 -259h-72l-266 144l-274 -144h-67zM469 640 h370l-177 481z" />
<glyph unicode="&#xc3;" horiz-adv-x="1320" d="M-27 14q0 37 18 45q4 2 55 8q60 7 115 105q19 33 68 151l328 787q63 150 87 220q19 53 35 53q18 0 26 -24q41 -119 65 -181l360 -917q45 -114 62 -137q35 -44 127 -65q28 -6 28 -34q0 -36 -40 -36q-26 0 -86.5 16t-95.5 16q-29 0 -84.5 -15t-80.5 -15q-32 0 -32 37 q0 27 32 33q74 13 74 54q0 30 -26 96l-135 343h-439l-131 -321q-32 -78 -32 -109q0 -50 79 -61q39 -6 39 -29q0 -43 -23 -43q-30 0 -89 14.5t-87 14.5q-42 0 -111 -19q-43 -12 -64 -12q-42 0 -42 25zM319 1520q14 73 47 115q62 80 159 80q65 0 174 -46q97 -41 136 -41 q69 0 119 94h48q-53 -200 -208 -200q-52 0 -151 38q-124 48 -162 48q-90 0 -111 -88h-51zM469 640h370l-177 481z" />
<glyph unicode="&#xc4;" horiz-adv-x="1320" d="M-27 14q0 37 18 45q4 2 55 8q60 7 115 105q19 33 68 151l328 787q63 150 87 220q19 53 35 53q18 0 26 -24q41 -119 65 -181l360 -917q45 -114 62 -137q35 -44 127 -65q28 -6 28 -34q0 -36 -40 -36q-26 0 -86.5 16t-95.5 16q-29 0 -84.5 -15t-80.5 -15q-32 0 -32 37 q0 27 32 33q74 13 74 54q0 30 -26 96l-135 343h-439l-131 -321q-32 -78 -32 -109q0 -50 79 -61q39 -6 39 -29q0 -43 -23 -43q-30 0 -89 14.5t-87 14.5q-42 0 -111 -19q-43 -12 -64 -12q-42 0 -42 25zM352 1628q0 38 27 64.5t66 27.5q38 0 64.5 -27t26.5 -66q0 -37 -27 -64 t-64 -27q-39 0 -66 26.5t-27 65.5zM469 640h370l-177 481zM811 1628q0 38 27 64.5t66 27.5q38 0 64.5 -27t26.5 -66q0 -37 -27 -64t-64 -27q-39 0 -66 26.5t-27 65.5z" />
<glyph unicode="&#xc5;" horiz-adv-x="1320" d="M-27 14q0 37 18 45q4 2 55 8q60 7 115 105q19 33 68 151l328 787q63 150 87 220q19 53 35 53q18 0 26 -24q41 -119 65 -181l360 -917q45 -114 62 -137q35 -44 127 -65q28 -6 28 -34q0 -36 -40 -36q-26 0 -86.5 16t-95.5 16q-29 0 -84.5 -15t-80.5 -15q-32 0 -32 37 q0 27 32 33q74 13 74 54q0 30 -26 96l-135 343h-439l-131 -321q-32 -78 -32 -109q0 -50 79 -61q39 -6 39 -29q0 -43 -23 -43q-30 0 -89 14.5t-87 14.5q-42 0 -111 -19q-43 -12 -64 -12q-42 0 -42 25zM469 640h370l-177 481zM487 1628q0 82 56.5 137.5t138.5 56.5 q80 0 136 -58t56 -138q0 -78 -57 -134.5t-135 -56.5q-81 0 -138 56.5t-57 136.5zM548 1628q0 -56 39 -94t95 -38q53 0 92 39t39 92q0 56 -38 94.5t-94 39.5q-55 0 -94 -39t-39 -94z" />
<glyph unicode="&#xc6;" horiz-adv-x="1735" d="M-18 30q0 21 17.5 26t35.5 8q39 8 52 13q22 10 42 33q45 53 80 142l361 929q15 39 15 59q0 35 -37 46q-21 6 -111 14q-29 2 -29 44q0 28 25 28q56 0 169 -5.5t170 -5.5q113 0 197 2l247 5q8 0 44 -1q1 -23 8 -102q10 -111 10 -98q0 -36 -39 -36q-36 0 -41 59 q-9 96 -107 93l-76 -2h-298l209 -554h243q106 0 120 31q6 14 14 74q5 38 40 38q36 0 33 -34l-2 -23l-2 -36q-6 -108 -6 -87q0 -26 5 -54q11 -62 11 -80q0 -43 -34 -43q-37 0 -47 64q-7 46 -39 56q-14 5 -76 5h-228l161 -426q35 -92 76.5 -111.5t207.5 -19.5q158 0 203 34 q24 18 57 120q10 32 41 32q38 0 38 -33q0 -15 -23 -98q-27 -97 -34 -147q-380 19 -545 19q-97 0 -213 -20h-5q-24 0 -24 38q0 31 37 35q69 8 69 55q0 18 -24 84l-82 226h-515l-83 -229q-21 -58 -21 -77q0 -46 80 -58q38 -6 38 -43q0 -31 -36 -31q-14 0 -80 18q-48 13 -87 13 q-36 0 -127 -26q-21 -6 -42 -6q-43 0 -43 43zM418 514h448l-220 615z" />
<glyph unicode="&#xc7;" horiz-adv-x="1371" d="M98 720q0 166 69 300q110 213 296 293q148 64 371 64q93 0 322 -36q3 -1 99 -13l11 -201v-6q0 -41 -35 -41q-28 0 -38 21q-2 4 -12 48q-15 64 -38 85q-36 32 -162 53q-100 16 -176 16q-228 0 -384 -138q-99 -87 -143 -238q-33 -113 -33 -241q0 -195 82 -339 q89 -157 260 -227q127 -52 270 -52q89 0 174 19q115 27 148 78q16 26 43 110q11 36 45 36q40 0 40 -29q0 -7 -10 -52l-42 -191q-287 -52 -412 -52h-28l-53 -96q30 3 50 3q78 0 116 -52q23 -31 23 -69q0 -75 -72 -119q-61 -37 -141 -37q-84 0 -154 34l23 59q75 -25 122 -25 q101 0 101 76q0 66 -79 66q-19 0 -52 -6l-32 30l78 140q-230 23 -383 130q-264 184 -264 599z" />
<glyph unicode="&#xc8;" horiz-adv-x="1065" d="M61 23q0 33 39 34q92 2 119 21q35 25 35 110v1017q0 66 -34 81q-7 3 -103 12q-27 3 -33 10t-6 35t22 28q26 0 61 -3q103 -9 241 -9q13 0 98 2q105 3 197 4l130 2q7 -2 13 -11l-1 -22q-1 -21 4 -57q12 -88 12 -112q0 -36 -38 -36q-35 0 -42 62t-46 78q-22 10 -99 10h-248 v-553h307q67 0 85 15.5t27 83.5q5 43 38 43q37 0 37 -35q0 -23 -5 -70t-5 -71q0 -25 8 -80q6 -42 6 -59q0 -41 -37 -41q-33 0 -39 45q-8 57 -34 70q-16 7 -85 7h-303v-297q0 -144 16 -185q22 -56 129 -70q28 -3 158 -3q146 0 190 45q22 22 47 106q11 36 45 36q37 0 37 -32 q0 -10 -5 -26q-22 -68 -53 -220h-19q-21 0 -149 8q-161 10 -373 10q-138 0 -269 -18q-22 -3 -37 -3q-38 0 -38 38zM120 1692q0 69 69 69q26 0 63 -26l336 -239h-78l-329 124q-61 23 -61 72z" />
<glyph unicode="&#xc9;" horiz-adv-x="1065" d="M61 23q0 33 39 34q92 2 119 21q35 25 35 110v1017q0 66 -34 81q-7 3 -103 12q-27 3 -33 10t-6 35t22 28q26 0 61 -3q103 -9 241 -9q13 0 98 2q105 3 197 4l130 2q7 -2 13 -11l-1 -22q-1 -21 4 -57q12 -88 12 -112q0 -36 -38 -36q-35 0 -42 62t-46 78q-22 10 -99 10h-248 v-553h307q67 0 85 15.5t27 83.5q5 43 38 43q37 0 37 -35q0 -23 -5 -70t-5 -71q0 -25 8 -80q6 -42 6 -59q0 -41 -37 -41q-33 0 -39 45q-8 57 -34 70q-16 7 -85 7h-303v-297q0 -144 16 -185q22 -56 129 -70q28 -3 158 -3q146 0 190 45q22 22 47 106q11 36 45 36q37 0 37 -32 q0 -10 -5 -26q-22 -68 -53 -220h-19q-21 0 -149 8q-161 10 -373 10q-138 0 -269 -18q-22 -3 -37 -3q-38 0 -38 38zM435 1496l335 239q36 26 64 26q69 0 69 -69q0 -49 -62 -72l-328 -124h-78z" />
<glyph unicode="&#xca;" horiz-adv-x="1065" d="M61 23q0 33 39 34q92 2 119 21q35 25 35 110v1017q0 66 -34 81q-7 3 -103 12q-27 3 -33 10t-6 35t22 28q26 0 61 -3q103 -9 241 -9q13 0 98 2q105 3 197 4l130 2q7 -2 13 -11l-1 -22q-1 -21 4 -57q12 -88 12 -112q0 -36 -38 -36q-35 0 -42 62t-46 78q-22 10 -99 10h-248 v-553h307q67 0 85 15.5t27 83.5q5 43 38 43q37 0 37 -35q0 -23 -5 -70t-5 -71q0 -25 8 -80q6 -42 6 -59q0 -41 -37 -41q-33 0 -39 45q-8 57 -34 70q-16 7 -85 7h-303v-297q0 -144 16 -185q22 -56 129 -70q28 -3 158 -3q146 0 190 45q22 22 47 106q11 36 45 36q37 0 37 -32 q0 -10 -5 -26q-22 -68 -53 -220h-19q-21 0 -149 8q-161 10 -373 10q-138 0 -269 -18q-22 -3 -37 -3q-38 0 -38 38zM193 1501l291 259h102l286 -259h-72l-266 144l-274 -144h-67z" />
<glyph unicode="&#xcb;" horiz-adv-x="1065" d="M61 23q0 33 39 34q92 2 119 21q35 25 35 110v1017q0 66 -34 81q-7 3 -103 12q-27 3 -33 10t-6 35t22 28q26 0 61 -3q103 -9 241 -9q13 0 98 2q105 3 197 4l130 2q7 -2 13 -11l-1 -22q-1 -21 4 -57q12 -88 12 -112q0 -36 -38 -36q-35 0 -42 62t-46 78q-22 10 -99 10h-248 v-553h307q67 0 85 15.5t27 83.5q5 43 38 43q37 0 37 -35q0 -23 -5 -70t-5 -71q0 -25 8 -80q6 -42 6 -59q0 -41 -37 -41q-33 0 -39 45q-8 57 -34 70q-16 7 -85 7h-303v-297q0 -144 16 -185q22 -56 129 -70q28 -3 158 -3q146 0 190 45q22 22 47 106q11 36 45 36q37 0 37 -32 q0 -10 -5 -26q-22 -68 -53 -220h-19q-21 0 -149 8q-161 10 -373 10q-138 0 -269 -18q-22 -3 -37 -3q-38 0 -38 38zM211 1628q0 38 27 64.5t66 27.5q38 0 64.5 -27t26.5 -66q0 -37 -27 -64t-64 -27q-39 0 -66 26.5t-27 65.5zM670 1628q0 38 27 64.5t66 27.5q38 0 64.5 -27 t26.5 -66q0 -37 -27 -64t-64 -27q-39 0 -66 26.5t-27 65.5z" />
<glyph unicode="&#xcc;" horiz-adv-x="637" d="M16 1692q0 69 69 69q26 0 63 -26l336 -239h-78l-329 124q-61 23 -61 72zM73 32q0 19 34 25q108 19 131 67q16 33 16 187v739q0 163 -16 197q-20 41 -134 61q-30 5 -30 41q0 29 31 29t83 -14q89 -24 124 -24t137 23q57 13 92 13q21 0 21 -36q0 -30 -52 -38 q-101 -16 -121 -82q-7 -22 -7 -166v-750q0 -132 12 -173q15 -52 124 -69q32 -5 37.5 -12t5.5 -40q0 -22 -26 -22q-29 0 -95 18q-73 20 -121 20q-45 0 -163 -31q-30 -8 -53 -8q-30 0 -30 45z" />
<glyph unicode="&#xcd;" horiz-adv-x="637" d="M74 32q0 19 34 25q108 19 131 67q16 33 16 187v739q0 163 -16 197q-20 41 -134 61q-30 5 -30 41q0 29 31 29t83 -14q89 -24 124 -24t137 23q57 13 92 13q21 0 21 -36q0 -30 -52 -38q-101 -16 -121 -82q-7 -22 -7 -166v-750q0 -132 12 -173q15 -52 124 -69q32 -5 37.5 -12 t5.5 -40q0 -22 -26 -22q-29 0 -95 18q-73 20 -121 20q-45 0 -163 -31q-30 -8 -53 -8q-30 0 -30 45zM153 1496l335 239q36 26 64 26q69 0 69 -69q0 -49 -62 -72l-328 -124h-78z" />
<glyph unicode="&#xce;" horiz-adv-x="637" d="M20 1501l250 259h102l245 -259h-71l-226 144l-233 -144h-67zM73 32q0 19 34 25q108 19 131 67q16 33 16 187v739q0 165 -16 197q-21 41 -134 61q-30 5 -30 41q0 29 31 29t83 -14q89 -24 124 -24t137 23q57 13 92 13q21 0 21 -36q0 -30 -52 -38q-101 -16 -121 -82 q-7 -22 -7 -166v-750q0 -132 12 -173q15 -51 124 -69q32 -5 37.5 -12t5.5 -40q0 -22 -26 -22q-29 0 -95 18q-73 20 -121 20q-45 0 -163 -31q-30 -8 -53 -8q-30 0 -30 45z" />
<glyph unicode="&#xcf;" horiz-adv-x="637" d="M38 1628q0 38 27 64.5t66 27.5q38 0 64.5 -27t26.5 -66q0 -37 -27 -64t-64 -27q-39 0 -66 26.5t-27 65.5zM74 32q0 19 34 25q108 19 131 67q16 33 16 187v739q0 163 -16 197q-20 41 -134 61q-30 5 -30 41q0 29 31 29t83 -14q89 -24 124 -24t137 23q57 13 92 13 q21 0 21 -36q0 -30 -52 -38q-101 -16 -121 -82q-7 -22 -7 -166v-750q0 -132 12 -173q15 -52 124 -69q32 -5 37.5 -12t5.5 -40q0 -22 -26 -22q-29 0 -95 18q-73 20 -121 20q-45 0 -163 -31q-30 -8 -53 -8q-30 0 -30 45zM415 1628q0 39 27 65t66 27q38 0 64.5 -27t26.5 -66 q0 -37 -27 -64t-64 -27q-39 0 -66 26.5t-27 65.5z" />
<glyph unicode="&#xd0;" horiz-adv-x="1512" d="M16 11v36q0 21 34 24l123 11q74 7 84 88q-2 -18 -2 145v333h-194v83h194v423q0 98 0 97q-8 35 -67 44l-70 11q-29 5 -34 8q-11 7 -11 31q0 34 25 34q10 0 26 -3q121 -23 223 -23q62 0 303 15q16 1 52 1q235 0 405 -105q303 -187 303 -569q0 -253 -135 -437 q-196 -268 -562 -268q-97 0 -273 30q-35 6 -86 6q-83 0 -203 -20q-96 -16 -118 -16q-17 0 -17 21zM381 1218q4 -52 4 -53v-434h462v-83h-462v-246q0 -198 25 -242q54 -96 285 -96q244 0 385 134q183 175 183 489q0 358 -264 517q-151 91 -344 91q-24 0 -81 -3l-151 -8 q-29 -2 -38 -21q-7 -14 -4 -45z" />
<glyph unicode="&#xd1;" horiz-adv-x="1570" d="M77 29q0 25 46 34.5t58 14.5q33 12 43 35q16 30 18 249l6 858q0 51 -4 109q-1 15 -1 28q0 27 21 27q12 0 42 -36l917 -1101v793q0 147 -15 189q-14 38 -55 55q-11 5 -79 21q-28 7 -32.5 14.5t-4.5 38.5q0 22 28 22t136 -29q30 -8 58 -8q14 0 140 28q34 7 61 7 q31 0 31 -31q0 -36 -41 -42q-93 -14 -107 -46q-9 -14 -11 -36q-7 -77 -7 -162v-1019q0 -11 1 -22v-12q0 -35 -19 -35q-15 0 -55 48l-907 1083v-742q0 -173 9 -203q26 -81 150 -100q31 -5 31 -35q0 -35 -24 -35t-106 21q-50 13 -98 13q-35 0 -117 -19q-64 -15 -86 -15 q-27 0 -27 40zM443 1520q14 73 47 115q62 80 159 80q65 0 174 -46q97 -41 136 -41q69 0 119 94h48q-53 -200 -208 -200q-52 0 -151 38q-124 48 -162 48q-90 0 -111 -88h-51z" />
<glyph unicode="&#xd2;" horiz-adv-x="1582" d="M102 681q0 309 207 511q193 189 492 190q306 2 504 -218q176 -195 176 -483q0 -255 -160 -452q-200 -247 -534 -247q-232 0 -407 128q-134 98 -207 252q-71 148 -71 319zM230 675q0 -231 130 -386q161 -192 427 -192q194 0 339.5 107t198.5 292q27 95 27 184 q0 285 -180 447q-153 138 -377 140q-273 3 -436 -196q-129 -158 -129 -396zM420 1692q0 69 69 69q26 0 63 -26l336 -239h-78l-329 124q-61 23 -61 72z" />
<glyph unicode="&#xd3;" horiz-adv-x="1582" d="M102 681q0 309 207 511q193 189 492 190q306 2 504 -218q176 -195 176 -483q0 -255 -160 -452q-200 -247 -534 -247q-232 0 -407 128q-134 98 -207 252q-71 148 -71 319zM230 675q0 -231 130 -386q161 -192 427 -192q194 0 339.5 107t198.5 292q27 95 27 184 q0 285 -180 447q-153 138 -377 140q-273 3 -436 -196q-129 -158 -129 -396zM693 1496l335 239q36 26 64 26q69 0 69 -69q0 -49 -62 -72l-328 -124h-78z" />
<glyph unicode="&#xd4;" horiz-adv-x="1582" d="M102 681q0 309 207 511q193 189 492 190q306 2 504 -218q176 -195 176 -483q0 -255 -160 -452q-200 -247 -534 -247q-232 0 -407 128q-134 98 -207 252q-71 148 -71 319zM230 675q0 -231 130 -386q161 -192 427 -192q194 0 339.5 107t198.5 292q27 95 27 184 q0 285 -180 447q-153 138 -377 140q-273 3 -436 -196q-129 -158 -129 -396zM451 1501l291 259h102l286 -259h-72l-266 144l-274 -144h-67z" />
<glyph unicode="&#xd5;" horiz-adv-x="1582" d="M102 681q0 309 207 511q193 189 492 190q306 2 504 -218q176 -195 176 -483q0 -255 -160 -452q-200 -247 -534 -247q-232 0 -407 128q-134 98 -207 252q-71 148 -71 319zM230 675q0 -231 130 -386q161 -192 427 -192q194 0 339.5 107t198.5 292q27 95 27 184 q0 285 -180 447q-153 138 -377 140q-273 3 -436 -196q-129 -158 -129 -396zM449 1520q14 73 47 115q62 80 159 80q65 0 174 -46q97 -41 136 -41q69 0 119 94h48q-53 -200 -208 -200q-52 0 -151 38q-124 48 -162 48q-90 0 -111 -88h-51z" />
<glyph unicode="&#xd6;" horiz-adv-x="1582" d="M102 681q0 309 207 511q193 189 492 190q306 2 504 -218q176 -195 176 -483q0 -255 -160 -452q-200 -247 -534 -247q-232 0 -407 128q-134 98 -207 252q-71 148 -71 319zM230 675q0 -231 130 -386q161 -192 427 -192q194 0 339.5 107t198.5 292q27 95 27 184 q0 285 -180 447q-153 138 -377 140q-273 3 -436 -196q-129 -158 -129 -396zM469 1628q0 38 27 64.5t66 27.5q38 0 64.5 -27t26.5 -66q0 -37 -27 -64t-64 -27q-39 0 -66 26.5t-27 65.5zM928 1628q0 38 27 64.5t66 27.5q38 0 64.5 -27t26.5 -66q0 -37 -27 -64t-64 -27 q-39 0 -66 26.5t-27 65.5z" />
<glyph unicode="&#xd7;" horiz-adv-x="1157" d="M131 190l393 396l-393 393l55 53l391 -394l397 394l52 -53l-394 -393l394 -396l-52 -53l-397 395l-391 -395z" />
<glyph unicode="&#xd8;" horiz-adv-x="1583" d="M102 17l177 185q-176 206 -176 475q0 233 123 414q198 292 578 292q230 0 439 -157l168 178l59 -54l-169 -182q180 -196 180 -479q0 -284 -183 -486q-199 -220 -517 -220q-264 0 -444 164l-176 -185zM231 675q0 -230 133 -386l796 849q-161 129 -364 129 q-221 0 -370 -129q-195 -168 -195 -463zM421 231q150 -135 368 -135q182 0 328 101q235 162 235 493q0 244 -134 392z" />
<glyph unicode="&#xd9;" horiz-adv-x="1435" d="M58 1343v11q0 27 25 27q15 0 82 -17q71 -18 108 -18t146 23q43 9 63 9q24 0 24 -39q0 -22 -32 -33q-25 -6 -51 -12q-79 -20 -92 -76q-2 -7 -2 -137q0 -510 46 -696q37 -151 123 -230q100 -92 245 -92q298 0 360 372q30 179 30 610q0 142 -11 196q-10 48 -82 62 q-34 6 -40 11q-10 7 -10 36t27 29q29 0 90 -17q54 -15 81 -15q29 0 109 21q31 8 71 8q18 0 18 -20q0 -29 -3 -34q-4 -10 -28 -14q-63 -12 -82 -37t-20 -91q-1 -44 -19 -448q-17 -372 -122 -542q-127 -206 -392 -206q-407 0 -484 428q-20 110 -32 349l-18 352q-1 39 -2 79 q-4 59 -17 78.5t-92 41.5q-18 5 -17 31zM346 1692q0 69 69 69q26 0 63 -26l336 -239h-78l-329 124q-61 23 -61 72z" />
<glyph unicode="&#xda;" horiz-adv-x="1435" d="M58 1343v11q0 27 25 27q15 0 82 -17q71 -18 108 -18t146 23q43 9 63 9q24 0 24 -39q0 -22 -32 -33q-25 -6 -51 -12q-79 -20 -92 -76q-2 -7 -2 -137q0 -510 46 -696q37 -151 123 -230q100 -92 245 -92q298 0 360 372q30 179 30 610q0 142 -11 196q-10 48 -82 62 q-34 6 -40 11q-10 7 -10 36t27 29q29 0 90 -17q54 -15 81 -15q29 0 109 21q31 8 71 8q18 0 18 -20q0 -29 -3 -34q-4 -10 -28 -14q-63 -12 -82 -37t-20 -91q-1 -44 -19 -448q-17 -372 -122 -542q-127 -206 -392 -206q-407 0 -484 428q-20 110 -32 349l-18 352q-1 39 -2 79 q-4 59 -17 78.5t-92 41.5q-18 5 -17 31zM620 1496l335 239q36 26 64 26q69 0 69 -69q0 -49 -62 -72l-328 -124h-78z" />
<glyph unicode="&#xdb;" horiz-adv-x="1435" d="M58 1343v11q0 27 25 27q15 0 82 -17q71 -18 108 -18t146 23q43 9 63 9q24 0 24 -39q0 -22 -32 -33q-25 -6 -51 -12q-79 -20 -92 -76q-2 -7 -2 -137q0 -510 46 -696q37 -151 123 -230q100 -92 245 -92q298 0 360 372q30 179 30 610q0 142 -11 196q-10 48 -82 62 q-34 6 -40 11q-10 7 -10 36t27 29q29 0 90 -17q54 -15 81 -15q29 0 109 21q31 8 71 8q18 0 18 -20q0 -29 -3 -34q-4 -10 -28 -14q-63 -12 -82 -37t-20 -91q-1 -44 -19 -448q-17 -372 -122 -542q-127 -206 -392 -206q-407 0 -484 428q-20 110 -32 349l-18 352q-1 39 -2 79 q-4 59 -17 78.5t-92 41.5q-18 5 -17 31zM405 1501l291 259h102l286 -259h-72l-266 144l-274 -144h-67z" />
<glyph unicode="&#xdc;" horiz-adv-x="1435" d="M58 1343v11q0 27 25 27q15 0 82 -17q71 -18 108 -18t146 23q43 9 63 9q24 0 24 -39q0 -22 -32 -33q-25 -6 -51 -12q-79 -20 -92 -76q-2 -7 -2 -137q0 -510 46 -696q37 -151 123 -230q100 -92 245 -92q298 0 360 372q30 179 30 610q0 142 -11 196q-10 48 -82 62 q-34 6 -40 11q-10 7 -10 36t27 29q29 0 90 -17q54 -15 81 -15q29 0 109 21q31 8 71 8q18 0 18 -20q0 -29 -3 -34q-4 -10 -28 -14q-63 -12 -82 -37t-20 -91q-1 -44 -19 -448q-17 -372 -122 -542q-127 -206 -392 -206q-407 0 -484 428q-20 110 -32 349l-18 352q-1 39 -2 79 q-4 59 -17 78.5t-92 41.5q-18 5 -17 31zM423 1628q0 38 27 64.5t66 27.5q38 0 64.5 -27t26.5 -66q0 -37 -27 -64t-64 -27q-39 0 -66 26.5t-27 65.5zM882 1628q0 38 27 64.5t66 27.5q38 0 64.5 -27t26.5 -66q0 -37 -27 -64t-64 -27q-39 0 -66 26.5t-27 65.5z" />
<glyph unicode="&#xdd;" horiz-adv-x="1218" d="M-38 1350q0 28 31 28t115 -24q18 -5 47 -5q30 0 106 19q40 10 70 10t30 -33q0 -32 -37 -39q-80 -14 -80 -35q0 -18 33 -69l357 -553l305 499q62 101 62 115q0 22 -93 43q-26 6 -26 44q0 28 33 28q16 0 47 -8q77 -20 104 -20q31 0 107 20q30 8 46 8q39 0 39 -45 q0 -18 -37 -27q-69 -16 -95 -41q-10 -10 -60 -91l-388 -627v-288q0 -114 20 -143q23 -35 129 -57q22 -5 26 -10t4 -29q0 -32 -26 -32q-23 0 -73 12q-103 25 -145 25q-41 0 -150 -27q-36 -9 -68 -9q-23 0 -23 45q0 17 50 29q96 23 116 61q14 25 14 137v286l-414 636 q-46 70 -56 81q-27 26 -85 41q-35 9 -35 45zM512 1496l335 239q36 26 64 26q69 0 69 -69q0 -49 -62 -72l-328 -124h-78z" />
<glyph unicode="&#xde;" horiz-adv-x="1014" d="M74 1349q0 29 31 29t83 -14q90 -24 124 -24q35 0 137 23q57 13 92 13q21 0 21 -36q0 -31 -52 -38q-79 -11 -106 -49q-23 -34 -22 -118l1 -102l39 2q117 6 178 6q200 0 292 -124q61 -82 61 -194q0 -171 -113 -275q-110 -100 -283 -100q-34 0 -83 17q-61 21 -61 47 q0 9 11 9h8q18 -2 38 -2q363 0 363 264q0 142 -114 220q-82 56 -181 56q-131 0 -147 -17q-8 -8 -8 -85v-543q0 -137 20 -175q30 -57 148 -72q29 -3 57 -6q29 -8 29 -39q0 -36 -32 -36q-53 0 -185 27q-54 11 -88 11q-33 0 -95 -17q-70 -19 -107 -19q-30 0 -30 38q0 25 23 32 l46 8q63 12 77 61q8 27 8 187v736q0 164 -16 196q-21 42 -134 62q-30 5 -30 41z" />
<glyph unicode="&#xdf;" horiz-adv-x="1490" d="M68 188q0 24 33 24q24 0 30 -7.5t11 -34.5q21 -119 191 -119q89 0 148 42q66 47 66 132q0 84 -78 138q-39 27 -161 79q-107 45 -152 87q-67 64 -67 166q0 129 111 196q76 46 191 46q58 0 180 -17q19 -3 56 -7l1 -165q1 -19 -31 -19q-30 0 -36 26q-10 44 -15 56 q-12 26 -39 40q-42 21 -114 21q-78 0 -132 -35q-63 -41 -63 -115q0 -110 152 -175q193 -83 243 -133q67 -67 67 -161q0 -129 -99 -201q-87 -64 -221 -64q-111 0 -248 21l-13 2q-1 27 -6 89q-5 56 -5 88zM813 188q0 24 33 24t41 -42q22 -119 191 -119q89 0 148 42 q66 47 66 132q0 84 -78 138q-39 27 -161 79q-107 46 -152 88q-67 64 -67 165q0 130 110 196q76 46 192 46q58 0 180 -17q19 -3 56 -7v-143q0 -9 1 -22q1 -19 -31 -19q-30 0 -36 26q-10 43 -15 56q-12 27 -39 40q-42 21 -114 21q-78 0 -132 -35q-63 -41 -63 -115 q0 -110 152 -175q192 -83 243 -133q67 -66 67 -161q0 -129 -99 -201q-87 -64 -221 -64q-111 0 -248 21l-13 2q-1 26 -6 89q-5 56 -5 88z" />
<glyph unicode="&#xe0;" horiz-adv-x="1030" d="M-7 18q0 31 26 36q83 15 117 66q29 67 59 135l285 647q17 38 31 38q17 0 46 -64l338 -736q22 -48 41.5 -61.5t73.5 -22.5q28 -5 28 -31q0 -34 -26 -34q-16 0 -83 12q-45 8 -73 8q-30 0 -123 -18q-21 -4 -34 -4q-22 0 -22 26q0 24 3.5 29.5t25.5 9.5q75 15 75 38 q0 20 -38 104l-72 160h-341l-95 -222q-13 -30 -13 -43q0 -17 22 -28q6 -3 75 -16q11 -2 11 -27q0 -31 -20 -31q-19 0 -78 12q-50 10 -74 10q-35 0 -125 -20q-13 -3 -22 -3q-18 0 -18 30zM167 1318q0 23 18 40.5t41 17.5q32 0 87 -53l276 -268h-65l-277 173q-80 50 -80 90z M358 424h284l-112 251q-4 9 -32 79q-11 -27 -34 -84z" />
<glyph unicode="&#xe1;" horiz-adv-x="1030" d="M-7 18q0 31 26 36q83 15 117 66q29 67 59 135l285 647q17 38 31 38q17 0 46 -64l338 -736q22 -48 41.5 -61.5t73.5 -22.5q28 -5 28 -31q0 -34 -26 -34q-16 0 -83 12q-45 8 -73 8q-30 0 -123 -18q-21 -4 -34 -4q-22 0 -22 26q0 24 3.5 29.5t25.5 9.5q75 15 75 38 q0 20 -38 104l-72 160h-341l-95 -222q-13 -30 -13 -43q0 -17 22 -28q6 -3 75 -16q11 -2 11 -27q0 -31 -20 -31q-19 0 -78 12q-50 10 -74 10q-35 0 -125 -20q-13 -3 -22 -3q-18 0 -18 30zM358 424h284l-112 251q-4 9 -32 79q-11 -27 -34 -84zM442 1055l290 286q35 35 67 35 q63 0 63 -62q0 -36 -47 -65l-310 -194h-63z" />
<glyph unicode="&#xe2;" horiz-adv-x="1030" d="M-7 18q0 31 26 36q83 15 117 66q29 67 59 135l285 647q17 38 31 38q17 0 46 -64l338 -736q22 -48 41.5 -61.5t73.5 -22.5q28 -5 28 -31q0 -34 -26 -34q-16 0 -83 12q-45 8 -73 8q-30 0 -123 -18q-21 -4 -34 -4q-22 0 -22 26q0 24 3.5 29.5t25.5 9.5q75 15 75 38 q0 20 -38 104l-72 160h-341l-95 -222q-13 -30 -13 -43q0 -17 22 -28q6 -3 75 -16q11 -2 11 -27q0 -31 -20 -31q-19 0 -78 12q-50 10 -74 10q-35 0 -125 -20q-13 -3 -22 -3q-18 0 -18 30zM225 1055l242 322h101l237 -322h-64l-224 206l-233 -206h-59zM358 424h284l-112 251 q-4 9 -32 79q-11 -27 -34 -84z" />
<glyph unicode="&#xe3;" horiz-adv-x="1030" d="M-7 18q0 31 26 36q83 15 117 66q29 67 59 135l285 647q17 38 31 38q17 0 46 -64l338 -736q22 -48 41.5 -61.5t73.5 -22.5q28 -5 28 -31q0 -34 -26 -34q-16 0 -83 12q-45 8 -73 8q-30 0 -123 -18q-21 -4 -34 -4q-22 0 -22 26q0 24 3.5 29.5t25.5 9.5q75 15 75 38 q0 20 -38 104l-72 160h-341l-95 -222q-13 -30 -13 -43q0 -17 22 -28q6 -3 75 -16q11 -2 11 -27q0 -31 -20 -31q-19 0 -78 12q-50 10 -74 10q-35 0 -125 -20q-13 -3 -22 -3q-18 0 -18 30zM174 1130q48 189 206 189q65 0 174 -46q97 -41 136 -41q69 0 119 94h48 q-56 -194 -208 -194q-52 0 -151 38q-125 48 -162 48q-90 0 -111 -88h-51zM358 424h284l-112 251q-4 9 -32 79q-11 -27 -34 -84z" />
<glyph unicode="&#xe4;" horiz-adv-x="1030" d="M-7 18q0 31 26 36q83 15 117 66q29 67 59 135l285 647q17 38 31 38q17 0 46 -64l338 -736q22 -48 41.5 -61.5t73.5 -22.5q28 -5 28 -31q0 -34 -26 -34q-16 0 -83 12q-45 8 -73 8q-30 0 -123 -18q-21 -4 -34 -4q-22 0 -22 26q0 24 3.5 29.5t25.5 9.5q75 15 75 38 q0 20 -38 104l-72 160h-341l-95 -222q-13 -30 -13 -43q0 -17 22 -28q6 -3 75 -16q11 -2 11 -27q0 -31 -20 -31q-19 0 -78 12q-50 10 -74 10q-35 0 -125 -20q-13 -3 -22 -3q-18 0 -18 30zM234 1232q0 39 27 65.5t66 26.5t65 -27t26 -66q0 -37 -27 -64t-64 -27q-39 0 -66 26.5 t-27 65.5zM358 424h284l-112 251q-4 9 -32 79q-11 -27 -34 -84zM611 1232q0 39 27 65t66 27q38 0 64.5 -27t26.5 -66q0 -37 -27 -64t-64 -27q-39 0 -66 26.5t-27 65.5z" />
<glyph unicode="&#xe5;" horiz-adv-x="1030" d="M-7 18q0 31 26 36q83 15 117 66q29 67 59 135l285 647q17 38 31 38q17 0 46 -64l338 -736q22 -48 41.5 -61.5t73.5 -22.5q28 -5 28 -31q0 -34 -26 -34q-16 0 -83 12q-45 8 -73 8q-30 0 -123 -18q-21 -4 -34 -4q-22 0 -22 26q0 24 3.5 29.5t25.5 9.5q75 15 75 38 q0 20 -38 104l-72 160h-341l-95 -222q-13 -30 -13 -43q0 -17 22 -28q6 -3 75 -16q11 -2 11 -27q0 -31 -20 -31q-19 0 -78 12q-50 10 -74 10q-35 0 -125 -20q-13 -3 -22 -3q-18 0 -18 30zM321 1218q0 82 57 137.5t139 56.5q80 0 136 -58t56 -138q0 -78 -57 -134.5t-135 -56.5 q-81 0 -138.5 56t-57.5 137zM358 424h284l-112 251q-4 9 -32 79q-11 -27 -34 -84zM382 1218q0 -56 39 -94t95 -38q54 0 93 38.5t39 92.5q0 56 -38 94.5t-94 39.5q-56 0 -95 -38.5t-39 -94.5z" />
<glyph unicode="&#xe6;" horiz-adv-x="1228" d="M1 23q0 22 7.5 25.5t65.5 17.5q50 12 89 108l243 603q15 37 15 47q0 22 -41 30q-28 3 -57 6q-45 6 -45 29q0 37 20 37q5 0 193 -11q17 -1 78 -1q162 0 288 6q21 1 38 1q28 0 28 -26.5t3 -57.5l7 -78q0 -23 -31 -23q-33 0 -39 35q-11 60 -34 72q-14 7 -86 7h-197l138 -358 h171q46 0 56.5 8.5t20.5 54.5q6 29 30 29q36 0 36 -21q0 -9 -3 -45.5t-3 -45.5q0 -18 8 -96v-8q0 -27 -29 -27q-30 0 -36 26q-10 42 -22.5 50.5t-57.5 8.5h-147l112 -282q23 -57 54 -69q16 -6 93 -6q106 0 127 7q46 16 72 93q10 30 37 30q35 0 35 -17q0 -9 -5 -30 q-19 -80 -35 -159q-158 11 -305 11q-88 0 -218 -11q-24 -2 -30 -2q-21 0 -21 29q0 27 28 33q60 12 60 41q0 25 -28 96l-39 99h-345l-63 -162q-9 -23 -9 -33q0 -32 58 -40q31 -4 35 -7q10 -6 10 -30q0 -28 -25 -28q-18 0 -78 13q-46 10 -73 10q-22 0 -106 -18q-14 -3 -26 -3 q-22 0 -22 32zM326 355h293l-120 323q-12 33 -23 73q-3 -10 -8 -24q-4 -10 -18 -48z" />
<glyph unicode="&#xe7;" horiz-adv-x="1006" d="M86 464q0 136 58 244q62 117 178 173q120 58 257 58q63 0 293 -27l34 -4l7 -152q0 -32 -29 -32q-34 0 -40 39q-11 65 -39 79q-67 34 -203 34q-190 0 -290 -110q-96 -105 -96 -296q0 -200 111 -310t311 -110q143 0 190 47q19 19 37 74q10 31 14 36q8 9 35 9q31 0 31 -18 q0 -5 -3 -18l-36 -159q-25 -3 -76 -12q-132 -24 -211 -24h-30l-50 -90q29 3 45 3q71 0 105 -47q20 -28 20 -62q0 -68 -64 -107q-55 -33 -127 -33q-76 0 -139 30l21 54q66 -23 109 -23q91 0 91 68q0 60 -71 60q-16 0 -46 -6l-29 27l72 131q-280 36 -386 240q-54 104 -54 234z " />
<glyph unicode="&#xe8;" horiz-adv-x="850" d="M34 22q0 23 7 28q4 3 30 5q104 9 120 35q8 15 8 137v516q0 85 -18 100q-14 12 -105 20q-31 3 -31 36q0 28 21 28q5 0 19 -1q129 -12 269 -12q101 0 165 2l144 4q26 0 22 -42q-2 -15 6 -96q1 -15 1 -30q0 -16 -37 -16q-28 0 -33 43q-8 61 -57 70q1 0 -108 0h-147v-357h236 q47 0 60 8q18 11 24 53q5 32 36 32q30 0 30 -25q0 -4 -1 -16q-6 -70 -6 -92q0 -28 6 -65q3 -18 3 -25q0 -22 -32 -22q-30 0 -36 35q-8 41 -30 49q-7 2 -66 2h-224v-222q0 -98 35 -120q24 -15 133 -15q142 0 172 17q22 12 55 99q5 13 23 13q44 0 44 -18q0 -8 -3 -20 q-30 -121 -37 -167l-31 1l-383 13q-75 0 -243 -16q-10 -1 -15 -1q-26 0 -26 32zM77 1318q0 23 18 40.5t41 17.5q32 0 87 -53l276 -268h-65l-277 173q-80 50 -80 90z" />
<glyph unicode="&#xe9;" horiz-adv-x="850" d="M34 22q0 23 7 28q4 3 30 5q104 9 120 35q8 15 8 137v516q0 85 -18 100q-14 12 -105 20q-31 3 -31 36q0 28 21 28q5 0 19 -1q129 -12 269 -12q101 0 165 2l144 4q26 0 22 -42q-2 -15 6 -96q1 -15 1 -30q0 -16 -37 -16q-28 0 -33 43q-8 61 -57 70q1 0 -108 0h-147v-357h236 q47 0 60 8q18 11 24 53q5 32 36 32q30 0 30 -25q0 -4 -1 -16q-6 -70 -6 -92q0 -28 6 -65q3 -18 3 -25q0 -22 -32 -22q-30 0 -36 35q-8 41 -30 49q-7 2 -66 2h-224v-222q0 -98 35 -120q24 -15 133 -15q142 0 172 17q22 12 55 99q5 13 23 13q44 0 44 -18q0 -8 -3 -20 q-30 -121 -37 -167l-31 1l-383 13q-75 0 -243 -16q-10 -1 -15 -1q-26 0 -26 32zM351 1055l290 286q35 35 67 35q63 0 63 -62q0 -36 -47 -65l-310 -194h-63z" />
<glyph unicode="&#xea;" horiz-adv-x="850" d="M34 22q0 23 7 28q4 3 30 5q104 9 120 35q8 15 8 137v516q0 85 -18 100q-14 12 -105 20q-31 3 -31 36q0 28 21 28q5 0 19 -1q129 -12 269 -12q101 0 165 2l144 4q26 0 22 -42q-2 -15 6 -96q1 -15 1 -30q0 -16 -37 -16q-28 0 -33 43q-8 61 -57 70q1 0 -108 0h-147v-357h236 q47 0 60 8q18 11 24 53q5 32 36 32q30 0 30 -25q0 -4 -1 -16q-6 -70 -6 -92q0 -28 6 -65q3 -18 3 -25q0 -22 -32 -22q-30 0 -36 35q-8 41 -30 49q-7 2 -66 2h-224v-222q0 -98 35 -120q24 -15 133 -15q142 0 172 17q22 12 55 99q5 13 23 13q44 0 44 -18q0 -8 -3 -20 q-30 -121 -37 -167l-31 1l-383 13q-75 0 -243 -16q-10 -1 -15 -1q-26 0 -26 32zM135 1055l242 322h101l237 -322h-64l-224 206l-233 -206h-59z" />
<glyph unicode="&#xeb;" horiz-adv-x="850" d="M34 22q0 23 7 28q4 3 30 5q104 9 120 35q8 15 8 137v516q0 85 -18 100q-14 12 -105 20q-31 3 -31 36q0 28 21 28q5 0 19 -1q129 -12 269 -12q101 0 165 2l144 4q26 0 22 -42q-2 -15 6 -96q1 -15 1 -30q0 -16 -37 -16q-28 0 -33 43q-8 61 -57 70q1 0 -108 0h-147v-357h236 q47 0 60 8q18 11 24 53q5 32 36 32q30 0 30 -25q0 -4 -1 -16q-6 -70 -6 -92q0 -28 6 -65q3 -18 3 -25q0 -22 -32 -22q-30 0 -36 35q-8 41 -30 49q-7 2 -66 2h-224v-222q0 -98 35 -120q24 -15 133 -15q142 0 172 17q22 12 55 99q5 13 23 13q44 0 44 -18q0 -8 -3 -20 q-30 -121 -37 -167l-31 1l-383 13q-75 0 -243 -16q-10 -1 -15 -1q-26 0 -26 32zM144 1232q0 39 27 65.5t66 26.5t65 -27t26 -66q0 -37 -27 -64t-64 -27q-39 0 -66 26.5t-27 65.5zM521 1232q0 39 27 65t66 27q38 0 64.5 -27t26.5 -66q0 -37 -27 -64t-64 -27q-39 0 -66 26.5 t-27 65.5z" />
<glyph unicode="&#xec;" horiz-adv-x="493" d="M-33 1318q0 23 18 40.5t41 17.5q32 0 87 -53l276 -268h-65l-277 173q-80 50 -80 90zM27 22q0 28 32 34q87 16 109 41.5t22 113.5v521q0 72 -25 96q-19 18 -96 35q-27 6 -32 10q-9 6 -9 29q0 30 21 30q15 0 126 -26q38 -9 76 -9q37 0 156 29q20 5 39 5q20 0 20 -37 q0 -25 -59 -37q-70 -14 -89 -43q-15 -23 -15 -100v-485q0 -87 8 -114q11 -37 117 -59q39 -8 39 -28v-8q0 -33 -26 -31q-18 1 -110 23q-50 12 -87 12q-45 0 -159 -30q-23 -6 -37 -6q-21 0 -21 34z" />
<glyph unicode="&#xed;" horiz-adv-x="493" d="M27 22q0 28 32 34q87 16 109 41.5t22 113.5v521q0 72 -25 96q-19 18 -96 35q-27 6 -32 10q-9 6 -9 29q0 30 21 30q15 0 126 -26q38 -9 76 -9q37 0 156 29q20 5 39 5q20 0 20 -37q0 -25 -59 -37q-70 -14 -89 -43q-15 -23 -15 -100v-485q0 -87 8 -114q11 -37 117 -59 q39 -8 39 -28v-8q0 -33 -26 -31q-18 1 -110 23q-50 12 -87 12q-45 0 -159 -30q-23 -6 -37 -6q-21 0 -21 34zM105 1055l290 286q35 35 67 35q63 0 63 -62q0 -36 -47 -65l-310 -194h-63z" />
<glyph unicode="&#xee;" horiz-adv-x="493" d="M-2 1055l201 322h101l196 -322h-64l-183 206l-192 -206h-59zM28 22q0 28 32 34q87 17 109 42t22 113v521q0 72 -25 96q-19 19 -96 35q-28 6 -32 9q-9 7 -9 30q0 30 21 30q15 0 126 -26q38 -9 76 -9t156 29q20 5 39 5q20 0 20 -37q0 -25 -59 -37q-70 -14 -89 -43 q-15 -23 -15 -100v-485q0 -88 8 -114q11 -37 117 -59q39 -8 39 -28v-8q0 -33 -26 -31q-18 1 -110 23q-50 12 -87 12q-45 0 -159 -30q-23 -6 -37 -6q-21 0 -21 34z" />
<glyph unicode="&#xef;" horiz-adv-x="493" d="M7 1232q0 39 27 65.5t66 26.5t65 -27t26 -66q0 -37 -27 -64t-64 -27q-39 0 -66 26.5t-27 65.5zM27 22q0 28 32 34q87 16 109 41.5t22 113.5v521q0 72 -25 96q-19 18 -96 35q-27 6 -32 10q-9 6 -9 29q0 30 21 30q15 0 126 -26q38 -9 76 -9q37 0 156 29q20 5 39 5 q20 0 20 -37q0 -25 -59 -37q-70 -14 -89 -43q-15 -23 -15 -100v-485q0 -87 8 -114q11 -37 117 -59q39 -8 39 -28v-8q0 -33 -26 -31q-18 1 -110 23q-50 12 -87 12q-45 0 -159 -30q-23 -6 -37 -6q-21 0 -21 34zM302 1232q0 39 27 65t66 27q38 0 64.5 -27t26.5 -66 q0 -37 -27 -64t-64 -27q-39 0 -66 26.5t-27 65.5z" />
<glyph unicode="&#xf0;" horiz-adv-x="1149" d="M31 25q0 22 11 27q5 2 32 4q107 7 124 22t17 145v201h-149v69h149v225q0 104 -9.5 115.5t-111.5 28.5q-29 5 -36 11.5t-7 32.5q0 24 22 24q16 0 44 -4q134 -19 162 -18l284 11q161 6 295 -85q187 -128 187 -368q0 -167 -100 -295q-140 -179 -401 -179q-56 0 -113 7 q-123 15 -150 15q-47 0 -197 -22q-21 -3 -30 -3q-23 0 -23 36zM328 233q0 -92 16 -118q36 -60 185 -60q187 0 291 112q99 109 99 297q0 143 -76 245q-67 89 -165 121q-74 24 -208 24q-124 0 -135 -9q-7 -6 -7 -62v-290h277v-69h-277v-191z" />
<glyph unicode="&#xf1;" horiz-adv-x="1103" d="M18 19q0 30 37 35q86 11 104 52q9 20 9 128v561q0 35 -2 110q0 6 -1 15q0 20 17 20t78 -70l586 -676v553q0 72 -30 93q-14 9 -104 28q-31 7 -31 38q0 27 24 27q12 0 95 -18q50 -11 83 -11q34 0 151 26q13 3 28 3q17 0 17 -44q0 -15 -47 -28q-70 -20 -81 -29 q-19 -16 -19 -78v-715q0 -60 -25 -60q-18 0 -56 44l-545 628q-10 11 -35 42l-18 23v-35q0 -7 1 -24v-29v-421q0 -91 18.5 -113t107.5 -37q28 -5 34.5 -10t6.5 -30q0 -28 -29 -28q-19 0 -100 16q-51 10 -80 10q-23 0 -123 -21q-28 -6 -47 -6q-24 0 -24 31zM210 1130 q48 189 206 189q65 0 174 -46q97 -41 136 -41q69 0 119 94h48q-56 -194 -208 -194q-52 0 -151 38q-125 48 -162 48q-90 0 -111 -88h-51z" />
<glyph unicode="&#xf2;" horiz-adv-x="1120" d="M75 459q0 223 155 355q143 121 333 123q177 1 317 -109q167 -132 167 -366q0 -184 -116 -318q-47 -54 -115 -93q-121 -69 -257 -69q-236 0 -375 163q-109 128 -109 314zM200 467q0 -155 85 -273q97 -134 273 -134q166 0 268 122q96 115 96 285q0 145 -67 242 q-102 147 -293 149q-161 1 -264 -116q-98 -112 -98 -275zM212 1318q0 23 18 40.5t41 17.5q32 0 87 -53l276 -268h-65l-277 173q-80 50 -80 90z" />
<glyph unicode="&#xf3;" horiz-adv-x="1120" d="M75 459q0 223 155 355q143 121 333 123q177 1 317 -109q167 -132 167 -366q0 -184 -116 -318q-47 -54 -115 -93q-121 -69 -257 -69q-236 0 -375 163q-109 128 -109 314zM200 467q0 -155 85 -273q97 -134 273 -134q166 0 268 122q96 115 96 285q0 145 -67 242 q-102 147 -293 149q-161 1 -264 -116q-98 -112 -98 -275zM487 1055l290 286q35 35 67 35q63 0 63 -62q0 -36 -47 -65l-310 -194h-63z" />
<glyph unicode="&#xf4;" horiz-adv-x="1120" d="M75 459q0 223 155 355q143 121 333 123q177 1 317 -109q167 -132 167 -366q0 -184 -116 -318q-47 -54 -115 -93q-121 -69 -257 -69q-236 0 -375 163q-109 128 -109 314zM200 467q0 -155 85 -273q97 -134 273 -134q166 0 268 122q96 115 96 285q0 145 -67 242 q-102 147 -293 149q-161 1 -264 -116q-98 -112 -98 -275zM270 1055l242 322h101l237 -322h-64l-224 206l-233 -206h-59z" />
<glyph unicode="&#xf5;" horiz-adv-x="1120" d="M75 459q0 223 155 355q143 121 333 123q177 1 317 -109q167 -132 167 -366q0 -184 -116 -318q-47 -54 -115 -93q-121 -69 -257 -69q-236 0 -375 163q-109 128 -109 314zM200 467q0 -155 85 -273q97 -134 273 -134q166 0 268 122q96 115 96 285q0 145 -67 242 q-102 147 -293 149q-161 1 -264 -116q-98 -112 -98 -275zM218 1130q48 189 206 189q65 0 174 -46q97 -41 136 -41q69 0 119 94h48q-56 -194 -208 -194q-52 0 -151 38q-125 48 -162 48q-90 0 -111 -88h-51z" />
<glyph unicode="&#xf6;" horiz-adv-x="1120" d="M75 459q0 223 155 355q143 121 333 123q177 1 317 -109q167 -132 167 -366q0 -184 -116 -318q-47 -54 -115 -93q-121 -69 -257 -69q-236 0 -375 163q-109 128 -109 314zM200 467q0 -155 85 -273q97 -134 273 -134q166 0 268 122q96 115 96 285q0 145 -67 242 q-102 147 -293 149q-161 1 -264 -116q-98 -112 -98 -275zM279 1232q0 39 27 65.5t66 26.5t65 -27t26 -66q0 -37 -27 -64t-64 -27q-39 0 -66 26.5t-27 65.5zM656 1232q0 39 27 65t66 27q38 0 64.5 -27t26.5 -66q0 -37 -27 -64t-64 -27q-39 0 -66 26.5t-27 65.5z" />
<glyph unicode="&#xf7;" horiz-adv-x="1158" d="M91 549v74h975v-74h-975zM479 290q0 41 29 69.5t71 29.5q41 0 69.5 -29.5t28.5 -70.5q0 -40 -29 -69t-69 -29q-42 0 -71 28.5t-29 70.5zM479 877q0 41 29 69.5t71 29.5q40 0 69 -29.5t29 -70.5q0 -40 -29 -69t-69 -29q-42 0 -71 28.5t-29 70.5z" />
<glyph unicode="&#xf8;" horiz-adv-x="1107" d="M55 -2l134 134q-122 129 -122 329q0 224 162 359q141 117 326 117q206 0 309 -103l130 133l48 -47l-129 -130q125 -118 125 -325q0 -212 -141 -347.5t-354 -135.5q-168 0 -306 106l-135 -137zM190 462q0 -139 71 -255l536 558q-102 92 -241 92q-165 0 -268 -116 q-98 -111 -98 -279zM305 156q111 -96 247 -96q166 0 268 123q96 115 96 285q0 143 -74 246z" />
<glyph unicode="&#xf9;" horiz-adv-x="1065" d="M32 910q0 22 24 22q17 0 38 -4q118 -22 136 -22q34 0 129 21q23 5 44 5q18 0 18 -48q0 -15 -46 -24q-59 -11 -78 -29q-22 -22 -20 -79l2 -58v-61q0 -228 35 -384q20 -90 84 -143.5t155 -53.5q113 0 182 85q48 59 67 218q6 49 6 73l3 294q1 71 -8 92q-14 36 -71 49 q-30 7 -35 10q-9 7 -9 32v7q0 20 24 20q11 0 92 -17q38 -8 65 -8t113 20q17 4 33 4q20 0 20 -26q0 -27 -6 -31t-62 -23q-44 -15 -54 -62q-1 -6 -5 -90l-9 -211q-9 -213 -55 -308q-93 -192 -312 -192q-135 0 -229 79q-119 100 -133 397l-12 248q0 12 -1 36q-2 65 -14 83 q-15 24 -73 34q-26 4 -32 11.5t-6 33.5zM185 1318q0 23 18 40.5t41 17.5q32 0 87 -53l276 -268h-65l-277 173q-80 50 -80 90z" />
<glyph unicode="&#xfa;" horiz-adv-x="1065" d="M32 910q0 22 24 22q17 0 38 -4q118 -22 136 -22q34 0 129 21q23 5 44 5q18 0 18 -48q0 -15 -46 -24q-59 -11 -78 -29q-22 -22 -20 -79l2 -58v-61q0 -228 35 -384q20 -90 84 -143.5t155 -53.5q113 0 182 85q48 59 67 218q6 49 6 73l3 294q1 71 -8 92q-14 36 -71 49 q-30 7 -35 10q-9 7 -9 32v7q0 20 24 20q11 0 92 -17q38 -8 65 -8t113 20q17 4 33 4q20 0 20 -26q0 -27 -6 -31t-62 -23q-44 -15 -54 -62q-1 -6 -5 -90l-9 -211q-9 -213 -55 -308q-93 -192 -312 -192q-135 0 -229 79q-119 100 -133 397l-12 248q0 12 -1 36q-2 65 -14 83 q-15 24 -73 34q-26 4 -32 11.5t-6 33.5zM459 1055l290 286q35 35 67 35q63 0 63 -62q0 -36 -47 -65l-310 -194h-63z" />
<glyph unicode="&#xfb;" horiz-adv-x="1065" d="M32 910q0 22 24 22q17 0 38 -4q118 -22 136 -22q34 0 129 21q23 5 44 5q18 0 18 -48q0 -15 -46 -24q-59 -11 -78 -29q-22 -22 -20 -79l2 -58v-61q0 -228 35 -384q20 -90 84 -143.5t155 -53.5q113 0 182 85q48 59 67 218q6 49 6 73l3 294q1 71 -8 92q-14 36 -71 49 q-30 7 -35 10q-9 7 -9 32v7q0 20 24 20q11 0 92 -17q38 -8 65 -8t113 20q17 4 33 4q20 0 20 -26q0 -27 -6 -31t-62 -23q-44 -15 -54 -62q-1 -6 -5 -90l-9 -211q-9 -213 -55 -308q-93 -192 -312 -192q-135 0 -229 79q-119 100 -133 397l-12 248q0 12 -1 36q-2 65 -14 83 q-15 24 -73 34q-26 4 -32 11.5t-6 33.5zM270 1055l242 322h101l237 -322h-64l-224 206l-233 -206h-59z" />
<glyph unicode="&#xfc;" horiz-adv-x="1065" d="M32 910q0 22 24 22q17 0 38 -4q118 -22 136 -22q34 0 129 21q23 5 44 5q18 0 18 -48q0 -15 -46 -24q-59 -11 -78 -29q-22 -22 -20 -79l2 -58v-61q0 -228 35 -384q20 -90 84 -143.5t155 -53.5q113 0 182 85q48 59 67 218q6 49 6 73l3 294q1 71 -8 92q-14 36 -71 49 q-30 7 -35 10q-9 7 -9 32v7q0 20 24 20q11 0 92 -17q38 -8 65 -8t113 20q17 4 33 4q20 0 20 -26q0 -27 -6 -31t-62 -23q-44 -15 -54 -62q-1 -6 -5 -90l-9 -211q-9 -213 -55 -308q-93 -192 -312 -192q-135 0 -229 79q-119 100 -133 397l-12 248q0 12 -1 36q-2 65 -14 83 q-15 24 -73 34q-26 4 -32 11.5t-6 33.5zM252 1232q0 39 27 65.5t66 26.5t65 -27t26 -66q0 -37 -27 -64t-64 -27q-39 0 -66 26.5t-27 65.5zM629 1232q0 39 27 65t66 27q38 0 64.5 -27t26.5 -66q0 -37 -27 -64t-64 -27q-39 0 -66 26.5t-27 65.5z" />
<glyph unicode="&#xfd;" horiz-adv-x="897" d="M-20 905q0 27 20 27q13 0 29 -3q84 -16 116 -16q29 0 135 15q21 3 31 3q18 0 18 -29q0 -27 -18 -35q-3 -2 -45 -9q-38 -7 -38 -24q0 -10 17 -36l230 -350l223 355q15 24 15 34q0 16 -55 25q-39 6 -45 10q-12 8 -12 41q0 18 17 18t94 -12q38 -6 59 -6q25 0 101 13 q17 3 30 3q19 0 19 -32q0 -20 -4 -24.5t-25 -8.5q-68 -14 -102 -67l-275 -430v-186q0 -70 29 -93q17 -14 98 -32q37 -8 37 -31q0 -37 -28 -37q-12 0 -105 23q-53 13 -90 13q-47 0 -141 -27q-35 -10 -54 -10q-24 0 -24 32q0 31 41 39q69 13 91 29q35 24 35 83v195l-283 423 q-29 44 -45 55t-65 22q-31 7 -31 40zM375 1055l290 286q35 35 67 35q63 0 63 -62q0 -36 -47 -65l-310 -194h-63z" />
<glyph unicode="&#xfe;" horiz-adv-x="791" d="M31 902q0 30 21 30q16 0 127 -26q38 -9 75 -9q38 0 155 29q20 5 39 5q20 0 20 -37q0 -25 -59 -37q-70 -14 -88 -43q-15 -24 -15 -100v-19q119 6 161 6q275 0 275 -223q0 -117 -92 -192q-77 -63 -198 -63q-58 0 -99 33q-17 13 -17 19q0 11 16 11q10 0 28.5 -1.5t28.5 -1.5 q223 0 223 174q0 179 -226 179q-96 0 -98 -18q-2 -9 -2 -51v-365q0 -89 26 -114q23 -22 116 -32q34 -4 35 -4q14 -5 14 -27q0 -36 -27 -36q-25 0 -122 18q-60 11 -98 11q-28 0 -145 -26q-18 -4 -35 -4q-25 0 -25 27v20q0 14 31 18q83 10 103 40q15 23 15 114v525 q0 72 -25 96q-20 18 -97 35q-27 6 -32 10q-9 6 -9 29z" />
<glyph unicode="&#xff;" horiz-adv-x="897" d="M-20 905q0 27 20 27q13 0 29 -3q84 -16 116 -16q29 0 135 15q21 3 31 3q18 0 18 -29q0 -27 -18 -35q-3 -2 -45 -9q-38 -7 -38 -24q0 -10 17 -36l230 -350l223 355q15 24 15 34q0 16 -55 25q-39 6 -45 10q-12 8 -12 41q0 18 17 18t94 -12q38 -6 59 -6q25 0 101 13 q17 3 30 3q19 0 19 -32q0 -20 -4 -24.5t-25 -8.5q-68 -14 -102 -67l-275 -430v-186q0 -70 29 -93q17 -14 98 -32q37 -8 37 -31q0 -37 -28 -37q-12 0 -105 23q-53 13 -90 13q-47 0 -141 -27q-35 -10 -54 -10q-24 0 -24 32q0 31 41 39q69 13 91 29q35 24 35 83v195l-283 423 q-29 44 -45 55t-65 22q-31 7 -31 40zM167 1232q0 39 27 65.5t66 26.5t65 -27t26 -66q0 -37 -27 -64t-64 -27q-39 0 -66 26.5t-27 65.5zM544 1232q0 39 27 65t66 27q38 0 64.5 -27t26.5 -66q0 -37 -27 -64t-64 -27q-39 0 -66 26.5t-27 65.5z" />
<glyph unicode="&#x152;" horiz-adv-x="2162" d="M101 674q0 307 195.5 508t501.5 201q180 0 325 -78q153 -82 236 -234l-6 156q-1 23 -10 58q-10 12 -44 16q-40 5 -40 47q0 25 20 25q10 -1 66 -6t258 -5q-1 0 58 1q68 1 140 2l138 1q6 -49 6 -84v-8q0 -24 8 -72q4 -24 4 -36q0 -36 -40 -36q-25 0 -35 30q-5 27 -10 53 q-10 53 -59 64q-15 4 -98 4h-238v-553h320q98 0 103 77q4 64 43 64q33 0 33 -34q0 -8 -4 -36q-6 -42 -6 -94q0 -27 6 -73q8 -62 8 -80q0 -39 -35 -39q-19 0 -32 16q-3 4 -16 65q-9 41 -74 41q-3 0 -26 1t-42 1h-278v-345q0 -75 8 -113q21 -100 237 -100q183 0 227 23 q39 20 61 97q20 67 55 67q36 0 36 -31q0 -18 -13 -63q-24 -84 -44 -186q-325 20 -489 20q-116 0 -205 -10q-63 -7 -73 -7q-31 0 -31 39q0 28 26 30q47 3 63 23q14 17 16 66q3 84 8 154q-53 -94 -137 -164q-188 -155 -430 -155q-219 0 -388 108q-173 111 -253 311 q-50 126 -50 273zM228 673q0 -250 153 -412q156 -165 404 -165q173 0 314 90q147 93 208 250q43 112 43 234q0 311 -197 475q-144 120 -355 122q-278 3 -439 -193q-131 -159 -131 -401z" />
<glyph unicode="&#x153;" horiz-adv-x="1538" d="M66 462q0 207 143 342q140 132 348 132q237 0 363 -204v31q0 79 2 58q-3 39 -27.5 43.5t-29 9.5t-4.5 31q0 23 22 22q12 0 25 -2q78 -10 225 -10q7 0 200 5h43q14 0 15 -30q5 -99 9 -120q1 -10 1 -17q0 -16 -32 -16q-30 0 -36 27q-15 70 -42 82q-10 4 -102 4h-166v-357 h224q56 0 70 8q19 12 25 62q3 21 31 21q33 0 33 -21q0 -15 -2.5 -45t-2.5 -45q0 -27 6 -90q1 -11 1 -20q0 -22 -28 -22h-16q-17 0 -23 28q-11 47 -37 56q-7 2 -76 2h-205v-234q0 -91 47 -113q26 -12 136 -12q143 0 172 27q14 13 38 82q7 21 42 21q28 0 28 -18q0 -9 -18 -85 t-22 -103l-18 1q-198 11 -294 11q-122 0 -227 -12q-17 -2 -32 -2q-22 0 -22 21v11q0 28 25 32q39 6 44 59l-2 86q-51 -79 -103 -123q-113 -95 -275 -95q-216 0 -352 148q-124 134 -124 333zM191 460q0 -151 71 -253q101 -146 289 -146q183 0 287 142q79 107 79 257 q0 169 -88 272q-104 121 -272 122t-270 -114q-96 -110 -96 -280z" />
<glyph unicode="&#x178;" horiz-adv-x="1218" d="M-38 1350q0 28 31 28t115 -24q18 -5 47 -5q30 0 106 19q40 10 70 10t30 -33q0 -32 -37 -39q-80 -14 -80 -35q0 -18 33 -69l357 -553l305 499q62 101 62 115q0 22 -93 43q-26 6 -26 44q0 28 33 28q16 0 47 -8q77 -20 104 -20q31 0 107 20q30 8 46 8q39 0 39 -45 q0 -18 -37 -27q-69 -16 -95 -41q-10 -10 -60 -91l-388 -627v-288q0 -114 20 -143q23 -35 129 -57q22 -5 26 -10t4 -29q0 -32 -26 -32q-23 0 -73 12q-103 25 -145 25q-41 0 -150 -27q-36 -9 -68 -9q-23 0 -23 45q0 17 50 29q96 23 116 61q14 25 14 137v286l-414 636 q-46 70 -56 81q-27 26 -85 41q-35 9 -35 45zM288 1628q0 38 27 64.5t66 27.5q38 0 64.5 -27t26.5 -66q0 -37 -27 -64t-64 -27q-39 0 -66 26.5t-27 65.5zM747 1628q0 38 27 64.5t66 27.5q38 0 64.5 -27t26.5 -66q0 -37 -27 -64t-64 -27q-39 0 -66 26.5t-27 65.5z" />
<glyph unicode="&#x2c6;" d="M222 1055l242 322h101l237 -322h-64l-224 206l-233 -206h-59z" />
<glyph unicode="&#x2dc;" d="M171 1130q48 189 206 189q65 0 174 -46q97 -41 136 -41q69 0 119 94h48q-56 -194 -208 -194q-52 0 -151 38q-125 48 -162 48q-90 0 -111 -88h-51z" />
<glyph unicode="&#x2000;" horiz-adv-x="911" />
<glyph unicode="&#x2001;" horiz-adv-x="1822" />
<glyph unicode="&#x2002;" horiz-adv-x="911" />
<glyph unicode="&#x2003;" horiz-adv-x="1822" />
<glyph unicode="&#x2004;" horiz-adv-x="607" />
<glyph unicode="&#x2005;" horiz-adv-x="455" />
<glyph unicode="&#x2006;" horiz-adv-x="303" />
<glyph unicode="&#x2007;" horiz-adv-x="303" />
<glyph unicode="&#x2008;" horiz-adv-x="227" />
<glyph unicode="&#x2009;" horiz-adv-x="364" />
<glyph unicode="&#x200a;" horiz-adv-x="101" />
<glyph unicode="&#x2010;" horiz-adv-x="428" d="M0 395v97h428v-97h-428z" />
<glyph unicode="&#x2011;" horiz-adv-x="428" d="M0 395v97h428v-97h-428z" />
<glyph unicode="&#x2012;" horiz-adv-x="428" d="M0 395v97h428v-97h-428z" />
<glyph unicode="&#x2013;" horiz-adv-x="714" d="M0 395v97h714v-97h-714z" />
<glyph unicode="&#x2014;" horiz-adv-x="1285" d="M0 395v97h1285v-97h-1285z" />
<glyph unicode="&#x2018;" horiz-adv-x="546" d="M151 888q6 116 51.5 254.5t109.5 232.5l28 41q13 25 26 29q3 1 42 2l28 1q7 -2 7 -7q-2 -3 -11 -14q-53 -59 -108 -155q-65 -113 -65 -172q0 -45 48 -45q17 0 60 11q-24 -70 -29 -178q-39 6 -82 6q-45 0 -105 -6z" />
<glyph unicode="&#x2019;" horiz-adv-x="548" d="M103 895q0 48 57 108q72 76 85 102q40 82 40 124q0 53 -50 53q-26 0 -58 -11q25 64 32 177q55 -4 90 -4q25 0 97 4q-31 -298 -178 -514q-23 -34 -27 -37q-11 -9 -42 -9q-46 0 -46 7z" />
<glyph unicode="&#x201a;" horiz-adv-x="503" d="M63 -382q0 48 57 107q72 76 85 101q40 83 40 125q0 53 -49 53q-27 0 -59 -10q25 63 32 177q55 -5 90 -5q18 0 97 5q-31 -298 -178 -514q-22 -33 -26 -36q-11 -10 -39 -10q-6 0 -31 -1h-5q-14 0 -14 8z" />
<glyph unicode="&#x201c;" horiz-adv-x="835" d="M151 888q29 296 174 510q25 37 35 43q14 9 54 9q28 0 28 -10q-2 -5 -10 -14q-52 -54 -109 -154q-65 -114 -65 -173q0 -44 50 -44q21 0 60 12q-31 -98 -30 -179q-28 6 -73 6q-69 0 -114 -6zM441 888q29 282 172 508q23 36 36.5 44.5t53.5 8.5q29 0 29 -9q-1 -2 -4 -6 q-61 -70 -112 -156q-66 -111 -66 -176q0 -47 51 -47q22 0 56 11q-28 -112 -29 -178q-35 6 -76 6q-56 0 -111 -6z" />
<glyph unicode="&#x201d;" horiz-adv-x="835" d="M103 895q2 3 14 19q75 98 103 146q65 113 65 172q0 50 -45 50q-17 0 -62 -12q31 99 28 178q56 -3 89 -3q30 0 100 3q-25 -260 -156 -478q-49 -82 -65 -82h-30q-41 0 -41 7zM393 896q0 4 6 11q53 60 108 154q66 113 66 170q0 52 -49 52q-26 0 -56 -13q27 117 28 178 q68 -2 103 -2q40 0 85 2q-39 -297 -173 -505q-26 -41 -40 -48t-64 -7q-14 0 -14 8z" />
<glyph unicode="&#x201e;" horiz-adv-x="837" d="M103 -382q1 5 11 17q101 131 132 196q39 81 39 124q0 49 -47 49q-28 0 -62 -11q19 52 32 178q38 -3 73 -3q27 0 116 3q-26 -170 -54 -257q-34 -104 -114 -235q-34 -55 -39 -59q-11 -8 -67 -8l-9 -1q-11 0 -11 7zM396 -382q0 6 11 19q169 202 169 320q0 48 -45 48 q-20 0 -63 -11q32 91 32 165v12q30 -4 76 -4q48 0 110 4q-36 -279 -172 -505q-34 -56 -56 -56h-4l-21 1l-28 -1q-9 1 -9 8z" />
<glyph unicode="&#x2022;" horiz-adv-x="1365" d="M401 694q0 121 83.5 202.5t204.5 81.5q116 0 198 -84t82 -200q0 -119 -82.5 -201.5t-201.5 -82.5q-118 0 -201 83t-83 201z" />
<glyph unicode="&#x2026;" horiz-adv-x="1507" d="M152 85q0 41 29 69.5t71 29.5q40 0 69 -29.5t29 -70.5q0 -40 -29 -69t-69 -29q-42 0 -71 28.5t-29 70.5zM654 85q0 41 29 69.5t71 29.5q41 0 69.5 -29.5t28.5 -70.5q0 -40 -29 -69t-69 -29q-42 0 -71 28.5t-29 70.5zM1156 85q0 41 29 69.5t71 29.5q41 0 69.5 -29.5 t28.5 -70.5q0 -40 -29 -69t-69 -29q-42 0 -71 28.5t-29 70.5z" />
<glyph unicode="&#x202f;" horiz-adv-x="364" />
<glyph unicode="&#x2039;" horiz-adv-x="539" d="M117 437l207 302h97l-205 -302l205 -288h-97z" />
<glyph unicode="&#x203a;" horiz-adv-x="539" d="M117 149l206 288l-206 302h97l207 -302l-207 -288h-97z" />
<glyph unicode="&#x205f;" horiz-adv-x="455" />
<glyph unicode="&#x2122;" horiz-adv-x="1777" d="M-39 1287q0 5 1 9l21 87q6 26 21 26q5 -1 12 -5q28 -17 117 -17h470q87 0 117 21q10 7 15 7q18 0 18 -16q0 -7 -2 -15l-19 -78q-7 -28 -21 -28q-7 0 -19 10q-30 24 -120 24h-161v-584q0 -71 5 -84q11 -27 67 -37q42 -7 42 -33q0 -35 -28 -35q-18 0 -59 10q-54 13 -77 13 t-76 -13q-40 -10 -58 -10q-29 0 -29 32q0 27 32 32q61 10 71 27q11 21 11 120v562h-170q-63 0 -92 -6q-22 -5 -46 -23q-20 -15 -26 -15q-17 0 -17 19zM688 572q0 27 32 34q46 11 57 64l6 98l51 565q2 20 3 41q5 23 26 23q14 0 37 -43l332 -621l302 624q19 40 36 40 q22 0 28 -44l77 -588q14 -105 14 -106q14 -40 76 -54q25 -6 25 -34q0 -33 -29 -33q-20 0 -59 11t-57 11q-36 0 -98 -17q-18 -5 -35 -5q-27 0 -27 38q0 22 36 29q66 12 66 47q0 24 -9 97l-51 415l-260 -538q-28 -57 -45 -57q-13 0 -21 14q-1 1 -10 20q-5 9 -11 22l-285 538 l-32 -466q0 -52 20 -69q14 -13 70 -25q22 -5 22 -34q0 -30 -34 -30q-19 0 -54.5 10.5t-54.5 10.5q-31 0 -77 -13q-24 -7 -38 -7q-29 0 -29 32z" />
<glyph unicode="&#x25fc;" horiz-adv-x="935" d="M0 0v935h935v-935h-935z" />
</font>
</defs>
</svg>
